Heiter bis Wolkig – Verbotene Früchte




No Cover available

Artist: Heiter bis Wolkig
Year: 1997
Genre: Punk
Notes: Discogs
Add. Notes:
Watch Songs on: YouTube
Cover incl.: No
Encoder: FLAC
Bitrate: ~900 kBit/s (44.1 kHz/16 Bit/s)
Log & Cue incl.: Yes
Size: 283 MB
Password: “slam” (without ” “)


All Downloads/Hosters are compatible

Download 1
KatFile.com
Turbobit.net
Rapidgator.net
FileFactory.com
Download 2
KatFile.com
Turbobit.net
Rapidgator.net
FileFactory.com

Tracklist:

1 Willkommen 
2 Helmut Honnecker Und Erich Kohl 
3 Filmriß 
4 Hey Rote Zora 
5 Kinder Haben Kurze Beine 
6 Nein, Nein, Wir Wolln Nicht Eure 
Welt 
7 Vater, Ich Liebe Dich 
8 Die Doofen Philosophen 
9 10 Kleine Nazischweine 
(Unplugged) 
10 Killer Clowns 
11 Kosmische Liebe 
12 Trash Song III 
13 Fette Ratten 
14 Resolution Der Kommunarden 
15 Niemals Geht Man So Ganz 
16 Tränen Lügen Nicht

EAC-Log, CUE-Sheed & NFO:

Click to open spoiler
Exact Audio Copy V1.3 from 2. September 2016

EAC extraction logfile from 24. February 2019, 18:16

Heiter bis Wolkig / Verbotene Früchte

Used drive : HL-DT-STDVDRAM GUE0N Adapter: 1 ID: 0

Read mode : Secure
Utilize accurate stream : Yes
Defeat audio cache : Yes
Make use of C2 pointers : No

Read offset correction : 102
Overread into Lead-In and Lead-Out : No
Fill up missing offset samples with silence : Yes
Delete leading and trailing silent blocks : No
Null samples used in CRC calculations : Yes
Used interface : Native Win32 interface for Win NT & 2000
Gap handling : Appended to previous track

Used output format : User Defined Encoder
Selected bitrate : 1024 kBit/s
Quality : High
Add ID3 tag : No
Command line compressor : C:\Program Files (x86)\Exact Audio Copy\FLAC\FLAC.EXE
Additional command line options : -8 -V -T “ARTIST=%artist%” -T “TITLE=%title%” -T “ALBUM=%albumtitle%” -T “DATE=%year%” -T “TRACKNUMBER=%tracknr%” -T “GENRE=%genre%” -T “COMMENT=%comment%” -T “BAND=%albuminterpret%” -T “COMPOSER=%composer%” %haslyrics%–tag-from-file=LYRICS=”%lyricsfile%”%haslyrics% -T “DISCNUMBER=%cdnumber%” -T “TOTALDISCS=%totalcds%” -T “TOTALTRACKS=%numtracks%” %hascover%–picture=”%coverfile%”%hascover% %source% -o %dest%

TOC of the extracted CD

Track | Start | Length | Start sector | End sector
———————————————————
1 | 0:00.00 | 1:34.40 | 0 | 7089
2 | 1:34.40 | 2:51.67 | 7090 | 19981
3 | 4:26.32 | 3:46.55 | 19982 | 36986
4 | 8:13.12 | 1:36.52 | 36987 | 44238
5 | 9:49.64 | 0:34.28 | 44239 | 46816
6 | 10:24.17 | 2:32.53 | 46817 | 58269
7 | 12:56.70 | 0:37.22 | 58270 | 61066
8 | 13:34.17 | 3:29.37 | 61067 | 76778
9 | 17:03.54 | 2:43.06 | 76779 | 89009
10 | 19:46.60 | 3:52.27 | 89010 | 106436
11 | 23:39.12 | 3:28.65 | 106437 | 122101
12 | 27:08.02 | 0:24.68 | 122102 | 123969
13 | 27:32.70 | 3:05.40 | 123970 | 137884
14 | 30:38.35 | 2:44.05 | 137885 | 150189
15 | 33:22.40 | 2:53.17 | 150190 | 163181
16 | 36:15.57 | 6:22.50 | 163182 | 191881

Track 1

Filename D:\Eigene Musik\Heiter bis Wolkig\Verbotene Früchte\01. Willkommen.wav

Pre-gap length 0:00:02.00

Peak level 69.1 %
Extraction speed 1.8 X
Track quality 100.0 %
Test CRC 14A7219C
Copy CRC 14A7219C
Accurately ripped (confidence 5) [649C052B] (AR v2)
Copy OK

Track 2

Filename D:\Eigene Musik\Heiter bis Wolkig\Verbotene Früchte\02. Helmut Honnecker und Erich Kohl.wav

Peak level 97.9 %
Extraction speed 2.4 X
Track quality 100.0 %
Test CRC 2ACAA161
Copy CRC 2ACAA161
Accurately ripped (confidence 5) [D8CF35FF] (AR v2)
Copy OK

Track 3

Filename D:\Eigene Musik\Heiter bis Wolkig\Verbotene Früchte\03. Filmriß.wav

Pre-gap length 0:00:02.29

Peak level 97.9 %
Extraction speed 2.1 X
Track quality 99.9 %
Test CRC 01B0FEDE
Copy CRC 01B0FEDE
Accurately ripped (confidence 5) [46D95AE8] (AR v2)
Copy OK

Track 4

Filename D:\Eigene Musik\Heiter bis Wolkig\Verbotene Früchte\04. Hey Rote Zora.wav

Peak level 97.9 %
Extraction speed 2.4 X
Track quality 100.0 %
Test CRC BADCC645
Copy CRC BADCC645
Accurately ripped (confidence 5) [38DEE8A8] (AR v2)
Copy OK

Track 5

Filename D:\Eigene Musik\Heiter bis Wolkig\Verbotene Früchte\05. Kinder haben kurze Beine.wav

Pre-gap length 0:00:02.23

Peak level 93.6 %
Extraction speed 1.5 X
Track quality 100.0 %
Test CRC 47D6C4DC
Copy CRC 47D6C4DC
Accurately ripped (confidence 5) [64016973] (AR v2)
Copy OK

Track 6

Filename D:\Eigene Musik\Heiter bis Wolkig\Verbotene Früchte\06. Nein, nein, wir woll’n nicht Eure Welt.wav

Peak level 97.9 %
Extraction speed 2.1 X
Track quality 99.9 %
Test CRC 7FC04626
Copy CRC 7FC04626
Accurately ripped (confidence 5) [0EFFD61D] (AR v2)
Copy OK

Track 7

Filename D:\Eigene Musik\Heiter bis Wolkig\Verbotene Früchte\07. Vater, ich liebe Dich.wav

Pre-gap length 0:00:02.30

Peak level 97.9 %
Extraction speed 1.8 X
Track quality 100.0 %
Test CRC 07FA395C
Copy CRC 07FA395C
Accurately ripped (confidence 5) [0EB3CFDF] (AR v2)
Copy OK

Track 8

Filename D:\Eigene Musik\Heiter bis Wolkig\Verbotene Früchte\08. Die doofen Philosophen.wav

Pre-gap length 0:00:02.17

Peak level 96.9 %
Extraction speed 2.5 X
Track quality 99.9 %
Test CRC 97A7E509
Copy CRC 97A7E509
Accurately ripped (confidence 5) [C0D0363F] (AR v2)
Copy OK

Track 9

Filename D:\Eigene Musik\Heiter bis Wolkig\Verbotene Früchte\09. 10 kleine Nazischweine (unplugged).wav

Pre-gap length 0:00:02.53

Peak level 89.7 %
Extraction speed 3.2 X
Track quality 100.0 %
Test CRC BAAFF1F9
Copy CRC BAAFF1F9
Accurately ripped (confidence 5) [331D0A8A] (AR v2)
Copy OK

Track 10

Filename D:\Eigene Musik\Heiter bis Wolkig\Verbotene Früchte\10. Killer Clowns.wav

Pre-gap length 0:00:01.33

Peak level 94.7 %
Extraction speed 3.5 X
Track quality 100.0 %
Test CRC 54B913D9
Copy CRC 54B913D9
Accurately ripped (confidence 5) [0CFF364B] (AR v2)
Copy OK

Track 11

Filename D:\Eigene Musik\Heiter bis Wolkig\Verbotene Früchte\11. Kosmische Liebe.wav

Pre-gap length 0:00:01.45

Peak level 97.9 %
Extraction speed 3.6 X
Track quality 100.0 %
Test CRC 64CE1676
Copy CRC 64CE1676
Accurately ripped (confidence 5) [B0252DBB] (AR v2)
Copy OK

Track 12

Filename D:\Eigene Musik\Heiter bis Wolkig\Verbotene Früchte\12. Trash Song III.wav

Pre-gap length 0:00:02.11

Peak level 97.9 %
Extraction speed 0.8 X
Track quality 99.5 %
Test CRC 05C865FF
Copy CRC 05C865FF
Accurately ripped (confidence 5) [97BE2B9E] (AR v2)
Copy OK

Track 13

Filename D:\Eigene Musik\Heiter bis Wolkig\Verbotene Früchte\13. Fette Ratten.wav

Pre-gap length 0:00:01.08

Peak level 97.9 %
Extraction speed 3.6 X
Track quality 100.0 %
Test CRC 22B362FA
Copy CRC 22B362FA
Accurately ripped (confidence 5) [3F7A5B16] (AR v2)
Copy OK

Track 14

Filename D:\Eigene Musik\Heiter bis Wolkig\Verbotene Früchte\14. Resolution der Kommunarden.wav

Pre-gap length 0:00:07.18

Peak level 95.3 %
Extraction speed 3.7 X
Track quality 100.0 %
Test CRC 3A215B8F
Copy CRC 3A215B8F
Accurately ripped (confidence 5) [214CB3A0] (AR v2)
Copy OK

Track 15

Filename D:\Eigene Musik\Heiter bis Wolkig\Verbotene Früchte\15. Niemals geht man so ganz.wav

Pre-gap length 0:00:07.29

Peak level 97.9 %
Extraction speed 3.7 X
Track quality 100.0 %
Test CRC 95579B02
Copy CRC 95579B02
Accurately ripped (confidence 5) [4D2150D2] (AR v2)
Copy OK

Track 16

Filename D:\Eigene Musik\Heiter bis Wolkig\Verbotene Früchte\16. Tränen lügen nicht.wav

Peak level 100.0 %
Extraction speed 4.4 X
Track quality 100.0 %
Test CRC 72430B0D
Copy CRC 72430B0D
Accurately ripped (confidence 5) [00AB9DE3] (AR v2)
Copy OK

All tracks accurately ripped

No errors occurred

End of status report

—- CUETools DB Plugin V2.1.6

[CTDB TOCID: XMq5uOfsY8ZH0E94Kue1A5MlT7c-] found
Submit result: XMq5uOfsY8ZH0E94Kue1A5MlT7c- has been confirmed
Track | CTDB Status
1 | (15/15) Accurately ripped
2 | (15/15) Accurately ripped
3 | (15/15) Accurately ripped
4 | (15/15) Accurately ripped
5 | (15/15) Accurately ripped
6 | (15/15) Accurately ripped
7 | (15/15) Accurately ripped
8 | (15/15) Accurately ripped
9 | (15/15) Accurately ripped
10 | (15/15) Accurately ripped
11 | (15/15) Accurately ripped
12 | (15/15) Accurately ripped
13 | (14/15) Accurately ripped
14 | (15/15) Accurately ripped
15 | (15/15) Accurately ripped
16 | (15/15) Accurately ripped

==== Log checksum 5CF4BB47EF240D36A7FABD71599FC034731724E9A7306BBBBE3E7B702E24C2AB ====


Leave a Reply

Your email address will not be published. Required fields are marked *

This site uses Akismet to reduce spam. Learn how your comment data is processed.