Heiter Bis Wolkig – Ganz In Schwarz




No Cover available

Artist: Heiter Bis Wolkig
Year: 1993
Genre: Punk
Notes: Discogs
Add. Notes:
Watch Songs on: YouTube
Cover incl.: Yes
Encoder: FLAC
Bitrate: ~1100 kBit/s (44.1 kHz/16 Bit/s)
Log & Cue incl.: Yes/Yes
Size: 189 MB
Password: “slam” (without ” “)


All Downloads/Hosters are compatible

Download 1
KatFile.com
Turbobit.net
Rapidgator.net
FileFactory.com
Download 2
KatFile.com
Turbobit.net
Rapidgator.net
FileFactory.com

Tracklist:

01 - Statement
02 - Ganz In Schwarz (Mit Einem Pflasterstein)
03 - Piraten In Der Stadt
04 - Die Nacht Ist Nicht Allein Zum Schlafen Da
05 - Lied Der Pünke
06 - Einfach Du

EAC-Log, CUE-Sheed & NFO:

Click to open spoiler
Exact Audio Copy V1.3 from 2. September 2016

EAC Auslese-Logdatei vom 6. Februar 2020, 20:01

Heiter Bis Wolkig / Ganz In Schwarz

Benutztes Laufwerk : ASUS DRW-24D5MT Adapter: 1 ID: 0

Lesemodus : Sicher
Benutze Accurate Stream : Ja
Audio Puffer abgeschaltet : Ja
Benutze C2 Fehlerinformationen : Nein

Leseoffset Korrektur : 6
Überlesen in das Lead-In und Lead-Out : Nein
Fülle fehlende Offsetsample mit Stille auf : Ja
Lösche führende und nachfolgende stille Blöcke : Nein
Null Samples gehen in CRC Berechnungen ein : Ja
Benutzte Schnittstelle : Natürliche Win32 Schnittstelle für Win NT/2000/XP
Pausenbehandlung : Nicht erkannt, daher hinter dem vorigen Track angehängt

Benutztes Ausgabeformat : Benutzerdefinierter Komprimierer
Gewählte Bitrate : 1024 kBit/s
Qualität : Hoch
Füge ID3 Tag hinzu : Nein
Kommandozeilen Komprimierer : C:\Program Files (x86)\Exact Audio Copy\FLAC\FLAC.EXE
Zusätzliche Kommandozeilenoptionen : -8 -V -T “ARTIST=%artist%” -T “TITLE=%title%” -T “ALBUM=%albumtitle%” -T “DATE=%year%” -T “TRACKNUMBER=%tracknr%” -T “GENRE=%genre%” -T “COMMENT=%comment%” -T “BAND=%albuminterpret%” -T “COMPOSER=%composer%” %haslyrics%–tag-from-file=LYRICS=”%lyricsfile%”%haslyrics% -T “DISCNUMBER=%cdnumber%” -T “TOTALDISCS=%totalcds%” -T “TOTALTRACKS=%numtracks%” %hascover%–picture=”%coverfile%”%hascover% %source% -o %dest%

TOC der ausgelesenen CD

Track | Start | Länge | Startsektor | Endsektor
——————————————————-
1 | 0:00.50 | 0:18.00 | 50 | 1399
2 | 0:18.50 | 3:40.55 | 1400 | 17954
3 | 3:59.30 | 4:18.10 | 17955 | 37314
4 | 8:17.40 | 4:01.62 | 37315 | 55451
5 | 12:19.27 | 3:49.20 | 55452 | 72646
6 | 16:08.47 | 3:28.48 | 72647 | 88294

Track 1

Dateiname M:\SLAM\www.slam.ws – Lossless Alternative Music\Heiter Bis Wolkig\Ganz In Schwarz\01. Statement.wav

Spitzenpegel 78.1 %
Auslesegeschwindigkeit 0.3 X
Track Qualität 100.0 %
Kopie CRC 9A2A77BD
Akkurat gelesen (Zuversicht 2) [9263E90F] (AR v2)
Kopie OK

Track 2

Dateiname M:\SLAM\www.slam.ws – Lossless Alternative Music\Heiter Bis Wolkig\Ganz In Schwarz\02. Ganz In Schwarz (Mit Einem Pflasterstein).wav

Spitzenpegel 96.4 %
Auslesegeschwindigkeit 0.9 X
Track Qualität 99.9 %
Kopie CRC E73943D2
Akkurat gelesen (Zuversicht 2) [A8BE9640] (AR v2)
Kopie OK

Track 3

Dateiname M:\SLAM\www.slam.ws – Lossless Alternative Music\Heiter Bis Wolkig\Ganz In Schwarz\03. Piraten In Der Stadt.wav

Spitzenpegel 86.8 %
Auslesegeschwindigkeit 1.1 X
Track Qualität 100.0 %
Kopie CRC 3A04B07A
Akkurat gelesen (Zuversicht 2) [96CF9B8B] (AR v2)
Kopie OK

Track 4

Dateiname M:\SLAM\www.slam.ws – Lossless Alternative Music\Heiter Bis Wolkig\Ganz In Schwarz\04. Die Nacht Ist Nicht Allein Zum Schlafen Da.wav

Spitzenpegel 81.1 %
Auslesegeschwindigkeit 1.2 X
Track Qualität 100.0 %
Kopie CRC 6A71B092
Akkurat gelesen (Zuversicht 3) [E39984F4] (AR v2)
Kopie OK

Track 5

Dateiname M:\SLAM\www.slam.ws – Lossless Alternative Music\Heiter Bis Wolkig\Ganz In Schwarz\05. Lied Der Pünke.wav

Spitzenpegel 75.3 %
Auslesegeschwindigkeit 1.3 X
Track Qualität 100.0 %
Kopie CRC 2491CB5C
Akkurat gelesen (Zuversicht 2) [28423F8E] (AR v2)
Kopie OK

Track 6

Dateiname M:\SLAM\www.slam.ws – Lossless Alternative Music\Heiter Bis Wolkig\Ganz In Schwarz\06. Einfach Du.wav

Spitzenpegel 76.7 %
Auslesegeschwindigkeit 1.4 X
Track Qualität 100.0 %
Kopie CRC 19D00CE7
Akkurat gelesen (Zuversicht 3) [EA23101F] (AR v2)
Kopie OK

Alle Tracks wurden akkurat gelesen

Keine Fehler aufgetreten

Ende des Statusreports

—- CUETools DB Plugin V2.1.6

[CTDB TOCID: GTeQoDOsXTAeStAe1Qx5_imrcXY-] found
Submit result: GTeQoDOsXTAeStAe1Qx5_imrcXY- has been confirmed
Track | CTDB Status
1 | (6/6) Accurately ripped
2 | (6/6) Accurately ripped
3 | (6/6) Accurately ripped
4 | (6/6) Accurately ripped
5 | (6/6) Accurately ripped
6 | (6/6) Accurately ripped

REM GENRE Punk
REM DATE 1992
REM DISCID 3D049906
REM COMMENT “ExactAudioCopy v1.3”
PERFORMER “Heiter Bis Wolkig”
TITLE “Ganz In Schwarz”
REM COMPOSER “”
FILE “Heiter Bis Wolkig\Ganz In Schwarz\01. Statement.wav” WAVE
TRACK 01 AUDIO
TITLE “Statement”
PERFORMER “Heiter Bis Wolkig”
REM COMPOSER “”
PREGAP 00:00:50
INDEX 01 00:00:00
FILE “Heiter Bis Wolkig\Ganz In Schwarz\02. Ganz In Schwarz (Mit Einem Pflasterstein).wav” WAVE
TRACK 02 AUDIO
TITLE “Ganz In Schwarz (Mit Einem Pflasterstein)”
PERFORMER “Heiter Bis Wolkig”
REM COMPOSER “”
INDEX 01 00:00:00
FILE “Heiter Bis Wolkig\Ganz In Schwarz\03. Piraten In Der Stadt.wav” WAVE
TRACK 03 AUDIO
TITLE “Piraten In Der Stadt”
PERFORMER “Heiter Bis Wolkig”
REM COMPOSER “”
INDEX 01 00:00:00
FILE “Heiter Bis Wolkig\Ganz In Schwarz\04. Die Nacht Ist Nicht Allein Zum Schlafen Da.wav” WAVE
TRACK 04 AUDIO
TITLE “Die Nacht Ist Nicht Allein Zum Schlafen Da”
PERFORMER “Heiter Bis Wolkig”
REM COMPOSER “”
INDEX 01 00:00:00
FILE “Heiter Bis Wolkig\Ganz In Schwarz\05. Lied Der Pünke.wav” WAVE
TRACK 05 AUDIO
TITLE “Lied Der Pünke”
PERFORMER “Heiter Bis Wolkig”
REM COMPOSER “”
INDEX 01 00:00:00
FILE “Heiter Bis Wolkig\Ganz In Schwarz\06. Einfach Du.wav” WAVE
TRACK 06 AUDIO
TITLE “Einfach Du”
PERFORMER “Heiter Bis Wolkig”
REM COMPOSER “”
INDEX 01 00:00:00


1 thought on “Heiter Bis Wolkig – Ganz In Schwarz

Leave a Reply

Your email address will not be published. Required fields are marked *

Enter the text from the image below
 

This site uses Akismet to reduce spam. Learn how your comment data is processed.