Heart – These Dreams – Heart’s Greatest Hits




Artist: Heart
Year: 1997
Genre: Rock
Notes: Discogs
Add. Notes:
Cover incl.: Yes
Encoder: FLAC
Bitrate: ~1000 kBit/s (44.1 kHz/16 Bit/s)
Log & Cue incl.: Yes
Size: 548,9 MB
Password: “slam” (without ” “)


All Downloads/Hosters are compatible

Download 1
KatFile.com
Turbobit.net
FileFactory.com
Rapidgator.net
Download 2
KatFile.com
Turbobit.net
FileFactory.com
Rapidgator.net

Tracklist:

1 Crazy On You 
2 All I Wanna Do Is Make Love To You 
3 If Looks Could Kill 
4 Never 
5 Alone 
6 Who Will You Run To 
7 Straight On (Acoustic) 
8 Magic Man 
9 What About Love 
10 Dreamboat Annie 
11 Dog And Butterfly (Acoustic) 
12 Nothin' At All 
13 Heartless 
14 Stranded 
15 Will You Be There (In The Morning) 
16 These Dreams 
17 Barracuda (Live)

EAC-Log, CUE-Sheed & NFO:

Click to open spoiler
Exact Audio Copy V1.1 from 23. June 2015

EAC extraction logfile from 24. May 2017, 20:57

Heart / These Dreams: Heart’s Greatest Hits

Used drive : ASUS DRW-24B1ST Adapter: 1 ID: 1

Read mode : Secure
Utilize accurate stream : Yes
Defeat audio cache : Yes
Make use of C2 pointers : No

Read offset correction : 6
Overread into Lead-In and Lead-Out : No
Fill up missing offset samples with silence : Yes
Delete leading and trailing silent blocks : No
Null samples used in CRC calculations : Yes
Used interface : Native Win32 interface for Win NT & 2000

Used output format : User Defined Encoder
Selected bitrate : 1024 kBit/s
Quality : High
Add ID3 tag : No
Command line compressor : C:\Program Files (x86)\Exact Audio Copy\Flac\flac.exe
Additional command line options : -V -8 -T “Genre=%genre%” -T “Artist=%artist%” -T “Title=%title%” -T “Album=%albumtitle%” -T “Date=%year%” -T “Tracknumber=%tracknr%” -T “Comment=%comment%” %source%

TOC of the extracted CD

Track | Start | Length | Start sector | End sector
———————————————————
1 | 0:00.00 | 4:51.72 | 0 | 21896
2 | 4:51.72 | 5:07.35 | 21897 | 44956
3 | 9:59.32 | 3:41.03 | 44957 | 61534
4 | 13:40.35 | 4:04.02 | 61535 | 79836
5 | 17:44.37 | 3:38.35 | 79837 | 96221
6 | 21:22.72 | 4:04.48 | 96222 | 114569
7 | 25:27.45 | 4:48.62 | 114570 | 136231
8 | 30:16.32 | 5:28.38 | 136232 | 160869
9 | 35:44.70 | 3:39.50 | 160870 | 177344
10 | 39:24.45 | 2:04.22 | 177345 | 186666
11 | 41:28.67 | 6:03.53 | 186667 | 213944
12 | 47:32.45 | 4:08.50 | 213945 | 232594
13 | 51:41.20 | 5:00.60 | 232595 | 255154
14 | 56:42.05 | 3:54.50 | 255155 | 272754
15 | 60:36.55 | 4:25.12 | 272755 | 292641
16 | 65:01.67 | 4:12.70 | 292642 | 311611
17 | 69:14.62 | 4:25.43 | 311612 | 331529

Range status and errors

Selected range

Filename E:\Torrent\# MY\# ?????????? ??????\Heart\1997 – These Dreams – Heart’s Greatest Hits\Heart – These Dreams – Heart’s Greatest Hits.wav

Peak level 100.0 %
Extraction speed 3.5 X
Range quality 100.0 %
Test CRC EC25EC42
Copy CRC EC25EC42
Copy OK

No errors occurred

AccurateRip summary

Track 1 accurately ripped (confidence 4) [C9DB1920] (AR v2)
Track 2 accurately ripped (confidence 4) [1C211F66] (AR v2)
Track 3 accurately ripped (confidence 4) [C53DBADA] (AR v2)
Track 4 accurately ripped (confidence 4) [26E3A17E] (AR v2)
Track 5 accurately ripped (confidence 4) [D2B1864B] (AR v2)
Track 6 accurately ripped (confidence 4) [2C691D27] (AR v2)
Track 7 accurately ripped (confidence 4) [44964CBC] (AR v2)
Track 8 accurately ripped (confidence 4) [5D21B626] (AR v2)
Track 9 accurately ripped (confidence 4) [149B5D64] (AR v2)
Track 10 accurately ripped (confidence 4) [15C8062C] (AR v2)
Track 11 accurately ripped (confidence 4) [500C9486] (AR v2)
Track 12 accurately ripped (confidence 4) [376F2F38] (AR v2)
Track 13 accurately ripped (confidence 4) [AB897891] (AR v2)
Track 14 accurately ripped (confidence 4) [250218B9] (AR v2)
Track 15 accurately ripped (confidence 4) [3ABECC93] (AR v2)
Track 16 accurately ripped (confidence 4) [EAC25A0C] (AR v2)
Track 17 accurately ripped (confidence 4) [62C4ECE9] (AR v2)

All tracks accurately ripped

End of status report

—- CUETools DB Plugin V2.1.6

[CTDB TOCID: MumQjVPsxWi0rGzLby6MlvewhJw-] found
Submit result: MumQjVPsxWi0rGzLby6MlvewhJw- has been confirmed
Track | CTDB Status
1 | (8/9) Accurately ripped
2 | (8/9) Accurately ripped
3 | (8/9) Accurately ripped
4 | (8/9) Accurately ripped
5 | (8/9) Accurately ripped
6 | (8/9) Accurately ripped
7 | (8/9) Accurately ripped
8 | (8/9) Accurately ripped
9 | (8/9) Accurately ripped
10 | (8/9) Accurately ripped
11 | (8/9) Accurately ripped
12 | (8/9) Accurately ripped
13 | (8/9) Accurately ripped
14 | (8/9) Accurately ripped
15 | (8/9) Accurately ripped
16 | (8/9) Accurately ripped
17 | (8/9) Accurately ripped

==== Log checksum EA60229588C7F6AFD23B2B842C031E92ABFC723673A9B7574AA7843461FB6D45 ====

REM GENRE Rock
REM DATE 1997
REM DISCID E7114411
REM COMMENT “ExactAudioCopy v1.1”
PERFORMER “Heart”
TITLE “These Dreams – Heart’s Greatest Hits”
FILE “Heart – These Dreams – Heart’s Greatest Hits.flac” WAVE
TRACK 01 AUDIO
TITLE “Crazy On You”
PERFORMER “Heart”
ISRC USB328600007
INDEX 01 00:00:00
TRACK 02 AUDIO
TITLE “All I Wanna Do Is Make Love To You”
PERFORMER “Heart”
ISRC USB328900003
INDEX 00 04:51:50
INDEX 01 04:51:72
TRACK 03 AUDIO
TITLE “If Looks Could Kill”
PERFORMER “Heart”
ISRC USB328500014
INDEX 00 09:59:05
INDEX 01 09:59:32
TRACK 04 AUDIO
TITLE “Never”
PERFORMER “Heart”
ISRC USB328500015
INDEX 00 13:40:12
INDEX 01 13:40:35
TRACK 05 AUDIO
TITLE “Alone”
PERFORMER “Heart”
ISRC USB328600002
INDEX 00 17:44:02
INDEX 01 17:44:37
TRACK 06 AUDIO
TITLE “Who Will You Run To”
PERFORMER “Heart”
ISRC USB328600003
INDEX 00 21:22:45
INDEX 01 21:22:72
TRACK 07 AUDIO
TITLE “Straight On (Acoustic)”
PERFORMER “Heart”
ISRC USB328600003
INDEX 01 25:27:45
TRACK 08 AUDIO
TITLE “Magic Man”
PERFORMER “Heart”
ISRC USB328600005
INDEX 00 30:16:00
INDEX 01 30:16:32
TRACK 09 AUDIO
TITLE “What About Love?”
PERFORMER “Heart”
ISRC USB328500012
INDEX 00 35:44:15
INDEX 01 35:44:70
TRACK 10 AUDIO
TITLE “Dreamboat Annie”
PERFORMER “Heart”
ISRC USB328600006
INDEX 01 39:24:45
TRACK 11 AUDIO
TITLE “Dog And Butterfly (Acoustic)”
PERFORMER “Heart”
ISRC USB329500008
INDEX 00 41:28:50
INDEX 01 41:28:67
TRACK 12 AUDIO
TITLE “Nothin’ At All”
PERFORMER “Heart”
ISRC USB328500013
INDEX 00 47:32:12
INDEX 01 47:32:45
TRACK 13 AUDIO
TITLE “Heartless”
PERFORMER “Heart”
ISRC USB328600004
INDEX 00 51:40:70
INDEX 01 51:41:20
TRACK 14 AUDIO
TITLE “Stranded”
PERFORMER “Heart”
ISRC USB328900004
INDEX 00 56:41:55
INDEX 01 56:42:05
TRACK 15 AUDIO
TITLE “Will You Be There (In The Morning)”
PERFORMER “Heart”
ISRC USB329300008
INDEX 00 60:36:30
INDEX 01 60:36:55
TRACK 16 AUDIO
TITLE “These Dreams”
PERFORMER “Heart”
ISRC USB328500010
INDEX 00 65:00:70
INDEX 01 65:01:67
TRACK 17 AUDIO
TITLE “Barracuda (Live)”
PERFORMER “Heart”
ISRC USB329000002
INDEX 00 69:14:42
INDEX 01 69:14:62


Leave a Reply

Your email address will not be published. Required fields are marked *

This site uses Akismet to reduce spam. Learn how your comment data is processed.