Heart – Strange Euphoria




Artist: Heart
Year: 2012
Genre: Rock
Notes: Discogs
Add. Notes:
Cover incl.: Yes
Encoder: FLAC
Bitrate: ~900 kBit/s (44.1 kHz/16 Bit/s)
Log & Cue incl.: Yes
Size: 1530,3 MB
Password: “slam” (without ” “)


All Downloads/Hosters are compatible

Download 1
KatFile.com
Turbobit.net
FileFactory.com
Rapidgator.net
Download 2
KatFile.com
Turbobit.net
FileFactory.com
Rapidgator.net

Tracklist:

CD 1
1 Through Eyes & Glass 
2 Magic Man (Demo) 
3 How Deep It Goes (Demo) 
4 Crazy On You (Demo) 
5a Dreamboat Annie (Fantasy Child) 
5b Dreamboat Annie (Reprise) (Edit) 
6 Love Alive 
7 Sylvan Song 
8 Dream Of The Archer 
9 White Lightning & Wine (Live At The Aquarius) 
10 Barracuda (Live From BBC Radio Concert) 
11 Little Queen 
12 Kick It Out 
13 Here Song (Demo) 
14 Heartless (Demo) 
15 Dog And Butterfly (Acoustic Demo) 
16 Straight On 
17 Nada One 

CD 2
1 Bebe Le Strange 
2 Silver Wheels II 
3 Even It Up 
4 Sweet Darlin' 
5 City's Burning 
6 Angels 
7 Love Mistake 
8 Lucky Day (Demo) 
9 Never (Live Rehersal Backstage Seattle Wa.1994) 
10 These Dreams 
11 Nobody Home 
12 Alone 
13 Wait For An Answer 
14 Unconditional Love (Home Demo 1988) 
15 High Romance (Home Demo) 
16 Under The Sky (Demo) 
17 Desire Walks On ("Beach Demo" Version) 
CD 3

1 Kiss 
2 Sand (Live) 
3 Everything (Live) 
4 She Still Believes (Live) 
5 Any Woman Blue's (Demo) 
6 Strange Euphoria 
7 Boppy' Back (Demo) 
8 Friend Meets Friend (Live) 
9 Love Or Madness (Live) 
10 Skin To Skin 
11 Fallen Ones 
12 Enough 
13 Lost Angel (Live) 
14 Little Problems, Little Lies 
15 Queen City 
16 Hey You 
17 Avalon (Reprise)

EAC-Log, CUE-Sheed & NFO:

Click to open spoiler
Exact Audio Copy V1.1 from 23. June 2015

EAC extraction logfile from 31. October 2015, 18:32

Heart / Strange Euphoria

Used drive : Optiarc DVD-ROM DDU1675S Adapter: 1 ID: 0

Read mode : Secure
Utilize accurate stream : Yes
Defeat audio cache : Yes
Make use of C2 pointers : No

Read offset correction : 6
Overread into Lead-In and Lead-Out : No
Fill up missing offset samples with silence : Yes
Delete leading and trailing silent blocks : No
Null samples used in CRC calculations : Yes
Used interface : Native Win32 interface for Win NT & 2000

Used output format : User Defined Encoder
Selected bitrate : 1024 kBit/s
Quality : High
Add ID3 tag : No
Command line compressor : C:\Program Files (x86)\Exact Audio Copy\Flac\flac.exe
Additional command line options : -V -8 -T “Date=%year%” -T “Genre=%genre%” %source%

TOC of the extracted CD

Track | Start | Length | Start sector | End sector
———————————————————
1 | 0:00.00 | 3:17.44 | 0 | 14818
2 | 3:17.44 | 3:13.55 | 14819 | 29348
3 | 6:31.24 | 4:44.00 | 29349 | 50648
4 | 11:15.24 | 4:50.36 | 50649 | 72434
5 | 16:05.60 | 3:14.39 | 72435 | 87023
6 | 19:20.24 | 4:18.58 | 87024 | 106431
7 | 23:39.07 | 2:14.52 | 106432 | 116533
8 | 25:53.59 | 4:33.40 | 116534 | 137048
9 | 30:27.24 | 6:03.00 | 137049 | 164273
10 | 36:30.24 | 4:39.00 | 164274 | 185198
11 | 41:09.24 | 5:14.00 | 185199 | 208748
12 | 46:23.24 | 2:47.00 | 208749 | 221273
13 | 49:10.24 | 1:36.00 | 221274 | 228473
14 | 50:46.24 | 4:56.00 | 228474 | 250673
15 | 55:42.24 | 4:59.63 | 250674 | 273161
16 | 60:42.12 | 5:07.12 | 273162 | 296198
17 | 65:49.24 | 5:22.02 | 296199 | 320350

Range status and errors

Selected range

Filename E:\Torrent\# MY\# Подготовка раздач\Heart – Discography\2012 – Strange Euphoria (Sony Music, 88691937362, U.S.A.)\CD-1\Heart – Strange Euphoria (CD-1).wav

Peak level 100.0 %
Extraction speed 5.0 X
Range quality 100.0 %
Test CRC 69C94976
Copy CRC 69C94976
Copy OK

No errors occurred

AccurateRip summary

Track 1 accurately ripped (confidence 36) [B48BBDE3] (AR v2)
Track 2 accurately ripped (confidence 36) [7AFD8114] (AR v2)
Track 3 accurately ripped (confidence 36) [065185B7] (AR v2)
Track 4 accurately ripped (confidence 36) [0B8A9CF3] (AR v2)
Track 5 accurately ripped (confidence 36) [FC26001A] (AR v2)
Track 6 accurately ripped (confidence 36) [7526CAEF] (AR v2)
Track 7 accurately ripped (confidence 36) [4B6B917D] (AR v2)
Track 8 accurately ripped (confidence 36) [C301C78F] (AR v2)
Track 9 accurately ripped (confidence 36) [FD6ADE96] (AR v2)
Track 10 accurately ripped (confidence 36) [0A222372] (AR v2)
Track 11 accurately ripped (confidence 36) [1087873D] (AR v2)
Track 12 accurately ripped (confidence 36) [AEC7D466] (AR v2)
Track 13 accurately ripped (confidence 36) [D6849686] (AR v2)
Track 14 accurately ripped (confidence 36) [DC0D8164] (AR v2)
Track 15 accurately ripped (confidence 36) [A7F626D4] (AR v2)
Track 16 accurately ripped (confidence 38) [9EA9EC91] (AR v2)
Track 17 accurately ripped (confidence 36) [E12F39C4] (AR v2)

All tracks accurately ripped

End of status report

—- CUETools DB Plugin V2.1.6

[CTDB TOCID: JextUQa.nns7_u5ikTgEH_gmgPI-] found
Submit result: JextUQa.nns7_u5ikTgEH_gmgPI- has been confirmed
Track | CTDB Status
1 | (16/16) Accurately ripped
2 | (16/16) Accurately ripped
3 | (16/16) Accurately ripped
4 | (16/16) Accurately ripped
5 | (16/16) Accurately ripped
6 | (16/16) Accurately ripped
7 | (16/16) Accurately ripped
8 | (16/16) Accurately ripped
9 | (16/16) Accurately ripped
10 | (16/16) Accurately ripped
11 | (16/16) Accurately ripped
12 | (16/16) Accurately ripped
13 | (16/16) Accurately ripped
14 | (16/16) Accurately ripped
15 | (16/16) Accurately ripped
16 | (15/16) Accurately ripped
17 | (15/16) Accurately ripped

==== Log checksum 4FB88567F12ECCBBEEC98EEFF27B30BA24142F29BE07253A28329C59A5D1B8B9 ====

Exact Audio Copy V1.1 from 23. June 2015

EAC extraction logfile from 31. October 2015, 19:19

Heart / Strange Euphoria

Used drive : Optiarc DVD-ROM DDU1675S Adapter: 1 ID: 0

Read mode : Secure
Utilize accurate stream : Yes
Defeat audio cache : Yes
Make use of C2 pointers : No

Read offset correction : 6
Overread into Lead-In and Lead-Out : No
Fill up missing offset samples with silence : Yes
Delete leading and trailing silent blocks : No
Null samples used in CRC calculations : Yes
Used interface : Native Win32 interface for Win NT & 2000

Used output format : User Defined Encoder
Selected bitrate : 1024 kBit/s
Quality : High
Add ID3 tag : No
Command line compressor : C:\Program Files (x86)\Exact Audio Copy\Flac\flac.exe
Additional command line options : -V -8 -T “Date=%year%” -T “Genre=%genre%” %source%

TOC of the extracted CD

Track | Start | Length | Start sector | End sector
———————————————————
1 | 0:00.00 | 3:41.33 | 0 | 16607
2 | 3:41.33 | 1:25.21 | 16608 | 23003
3 | 5:06.54 | 5:12.48 | 23004 | 46451
4 | 10:19.27 | 3:19.08 | 46452 | 61384
5 | 13:38.35 | 4:27.25 | 61385 | 81434
6 | 18:05.60 | 3:01.39 | 81435 | 95048
7 | 21:07.24 | 3:28.00 | 95049 | 110648
8 | 24:35.24 | 3:32.00 | 110649 | 126548
9 | 28:07.24 | 4:10.46 | 126549 | 145344
10 | 32:17.70 | 4:14.00 | 145345 | 164394
11 | 36:31.70 | 4:09.36 | 164395 | 183105
12 | 40:41.31 | 3:41.00 | 183106 | 199680
13 | 44:22.31 | 4:31.39 | 199681 | 220044
14 | 48:53.70 | 4:34.00 | 220045 | 240594
15 | 53:27.70 | 3:22.73 | 240595 | 255817
16 | 56:50.68 | 2:53.02 | 255818 | 268794
17 | 59:43.70 | 5:01.36 | 268795 | 291405

Range status and errors

Selected range

Filename E:\Torrent\# MY\# Подготовка раздач\Heart – Discography\2012 – Strange Euphoria (Sony Music, 88691937362, U.S.A.)\CD-2\Heart – Strange Euphoria (CD-2).wav

Peak level 100.0 %
Extraction speed 4.9 X
Range quality 99.9 %
Test CRC 3271E789
Copy CRC 3271E789
Copy OK

No errors occurred

AccurateRip summary

Track 1 accurately ripped (confidence 38) [096350A7] (AR v2)
Track 2 accurately ripped (confidence 38) [ABE75EC6] (AR v2)
Track 3 accurately ripped (confidence 38) [53E40F1E] (AR v2)
Track 4 accurately ripped (confidence 38) [C29F0168] (AR v2)
Track 5 accurately ripped (confidence 38) [15857968] (AR v2)
Track 6 accurately ripped (confidence 38) [F6D113A4] (AR v2)
Track 7 accurately ripped (confidence 38) [577FB6A9] (AR v2)
Track 8 accurately ripped (confidence 38) [FB12D1D2] (AR v2)
Track 9 accurately ripped (confidence 38) [3E689CAA] (AR v2)
Track 10 accurately ripped (confidence 38) [0871AE94] (AR v2)
Track 11 accurately ripped (confidence 38) [1C2B10A9] (AR v2)
Track 12 accurately ripped (confidence 38) [B9E8D788] (AR v2)
Track 13 accurately ripped (confidence 38) [1D06E0AA] (AR v2)
Track 14 accurately ripped (confidence 38) [2C7553AD] (AR v2)
Track 15 accurately ripped (confidence 38) [85AFA812] (AR v2)
Track 16 accurately ripped (confidence 38) [920AA290] (AR v2)
Track 17 accurately ripped (confidence 36) [DAA91001] (AR v2)

All tracks accurately ripped

End of status report

—- CUETools DB Plugin V2.1.6

[CTDB TOCID: wDIdF4gX8gVDDHl6okYFJ1m23mI-] found
Submit result: wDIdF4gX8gVDDHl6okYFJ1m23mI- has been confirmed
Track | CTDB Status
1 | (16/16) Accurately ripped
2 | (16/16) Accurately ripped
3 | (16/16) Accurately ripped
4 | (16/16) Accurately ripped
5 | (15/16) Accurately ripped
6 | (16/16) Accurately ripped
7 | (16/16) Accurately ripped
8 | (16/16) Accurately ripped
9 | (16/16) Accurately ripped
10 | (16/16) Accurately ripped
11 | (16/16) Accurately ripped
12 | (16/16) Accurately ripped
13 | (16/16) Accurately ripped
14 | (16/16) Accurately ripped
15 | (16/16) Accurately ripped
16 | (16/16) Accurately ripped
17 | (16/16) Accurately ripped

==== Log checksum 45B8F07BD52B25E5FCDCDE3C3A10BC2849AFFECB83B527786994811FC3707A77 ====

Exact Audio Copy V1.1 from 23. June 2015

EAC extraction logfile from 31. October 2015, 20:25

Heart / Strange Euphoria

Used drive : Optiarc DVD-ROM DDU1675S Adapter: 1 ID: 0

Read mode : Secure
Utilize accurate stream : Yes
Defeat audio cache : Yes
Make use of C2 pointers : No

Read offset correction : 6
Overread into Lead-In and Lead-Out : No
Fill up missing offset samples with silence : Yes
Delete leading and trailing silent blocks : No
Null samples used in CRC calculations : Yes
Used interface : Native Win32 interface for Win NT & 2000

Used output format : User Defined Encoder
Selected bitrate : 1024 kBit/s
Quality : High
Add ID3 tag : No
Command line compressor : C:\Program Files (x86)\Exact Audio Copy\Flac\flac.exe
Additional command line options : -V -8 -T “Date=%year%” -T “Genre=%genre%” %source%

TOC of the extracted CD

Track | Start | Length | Start sector | End sector
———————————————————
1 | 0:00.00 | 5:08.19 | 0 | 23118
2 | 5:08.19 | 4:35.68 | 23119 | 43811
3 | 9:44.12 | 4:46.36 | 43812 | 65297
4 | 14:30.48 | 3:40.60 | 65298 | 81857
5 | 18:11.33 | 4:01.15 | 81858 | 99947
6 | 22:12.48 | 2:45.48 | 99948 | 112370
7 | 24:58.21 | 2:10.27 | 112371 | 122147
8 | 27:08.48 | 2:55.39 | 122148 | 135311
9 | 30:04.12 | 2:50.36 | 135312 | 148097
10 | 32:54.48 | 4:22.39 | 148098 | 167786
11 | 37:17.12 | 3:43.00 | 167787 | 184511
12 | 41:00.12 | 3:26.36 | 184512 | 199997
13 | 44:26.48 | 6:53.18 | 199998 | 230990
14 | 51:19.66 | 3:31.44 | 230991 | 246859
15 | 54:51.35 | 4:15.00 | 246860 | 265984
16 | 59:06.35 | 4:14.69 | 265985 | 285103
17 | 63:21.29 | 0:34.30 | 285104 | 287683

Range status and errors

Selected range

Filename E:\Torrent\# MY\# Подготовка раздач\Heart – Discography\2012 – Strange Euphoria (Sony Music, 88691937362, U.S.A.)\CD-3\Heart – Strange Euphoria (CD-3).wav

Peak level 99.6 %
Extraction speed 4.9 X
Range quality 100.0 %
Test CRC BCE8FF4B
Copy CRC BCE8FF4B
Copy OK

No errors occurred

AccurateRip summary

Track 1 accurately ripped (confidence 38) [395BF6D5] (AR v2)
Track 2 accurately ripped (confidence 38) [A38C7E76] (AR v2)
Track 3 accurately ripped (confidence 38) [FFA4298C] (AR v2)
Track 4 accurately ripped (confidence 38) [8BA921D0] (AR v2)
Track 5 accurately ripped (confidence 38) [3058922D] (AR v2)
Track 6 accurately ripped (confidence 38) [30766441] (AR v2)
Track 7 accurately ripped (confidence 38) [F5C44C4B] (AR v2)
Track 8 accurately ripped (confidence 38) [91D6041E] (AR v2)
Track 9 accurately ripped (confidence 38) [9A7F8FBB] (AR v2)
Track 10 accurately ripped (confidence 38) [15687E12] (AR v2)
Track 11 accurately ripped (confidence 38) [A14B456C] (AR v2)
Track 12 accurately ripped (confidence 38) [E2503872] (AR v2)
Track 13 accurately ripped (confidence 38) [D712DE86] (AR v2)
Track 14 accurately ripped (confidence 38) [4BA1D97F] (AR v2)
Track 15 accurately ripped (confidence 37) [6A5ADC82] (AR v2)
Track 16 accurately ripped (confidence 38) [ABAF35E4] (AR v2)
Track 17 accurately ripped (confidence 38) [13226284] (AR v2)

All tracks accurately ripped

End of status report

—- CUETools DB Plugin V2.1.6

[CTDB TOCID: 5hFv9Gmj93iFpH4.WwCEBAd7Rd0-] found
Submit result: 5hFv9Gmj93iFpH4.WwCEBAd7Rd0- has been confirmed
Track | CTDB Status
1 | (16/16) Accurately ripped
2 | (16/16) Accurately ripped
3 | (16/16) Accurately ripped
4 | (16/16) Accurately ripped
5 | (16/16) Accurately ripped
6 | (16/16) Accurately ripped
7 | (16/16) Accurately ripped
8 | (16/16) Accurately ripped
9 | (16/16) Accurately ripped
10 | (16/16) Accurately ripped
11 | (16/16) Accurately ripped
12 | (16/16) Accurately ripped
13 | (16/16) Accurately ripped
14 | (16/16) Accurately ripped
15 | (16/16) Accurately ripped
16 | (16/16) Accurately ripped
17 | (16/16) Accurately ripped

==== Log checksum 572EA6C523B590EDC9586F7F5BD8ACE716C960BE9EAB8D10AFE0DB4443277B44 ====

REM GENRE Rock
REM DATE 2012
REM DISCID 0910AF11
REM COMMENT “ExactAudioCopy v1.1”
PERFORMER “Heart”
TITLE “Strange Euphoria”
FILE “Heart – Strange Euphoria (CD-1).flac” WAVE
TRACK 01 AUDIO
TITLE “Through Eyes & Glass (by Ann Wilson & The Daybreaks)”
PERFORMER “Heart”
ISRC USQX91200634
INDEX 01 00:00:00
TRACK 02 AUDIO
TITLE “Magic Man (Demo) (Previously unreleased)”
PERFORMER “Heart”
ISRC USQX91200635
INDEX 00 03:16:63
INDEX 01 03:17:44
TRACK 03 AUDIO
TITLE “How Deep It Goes (Demo) (Previously unreleased)”
PERFORMER “Heart”
ISRC USQX91200636
INDEX 00 06:30:05
INDEX 01 06:31:24
TRACK 04 AUDIO
TITLE “Crazy On You (Demo) (Previously unreleased)”
PERFORMER “Heart”
ISRC USQX91200637
INDEX 00 11:14:24
INDEX 01 11:15:24
TRACK 05 AUDIO
TITLE “Dreamboat Annie (Fantasy Child) + Dreamboat Annie Reprise (Edit) (Previously unreleased)”
PERFORMER “Heart”
ISRC USCA21201287
INDEX 00 16:05:04
INDEX 01 16:05:60
TRACK 06 AUDIO
TITLE “Love Alive”
PERFORMER “Heart”
ISRC USSM17700356
INDEX 00 19:18:64
INDEX 01 19:20:24
TRACK 07 AUDIO
TITLE “Sylvan Song”
PERFORMER “Heart”
ISRC USSM10404444
INDEX 01 23:39:07
TRACK 08 AUDIO
TITLE “Dream Of The Archer”
PERFORMER “Heart”
ISRC USSM10009078
INDEX 01 25:53:59
TRACK 09 AUDIO
TITLE “White Lightning And Wine (Live at The Aquarius) (Previously unreleased)”
PERFORMER “Heart”
ISRC USQX91200638
INDEX 00 30:25:18
INDEX 01 30:27:24
TRACK 10 AUDIO
TITLE “Barracuda (Live from BBC Radio Concert) (Previously unreleased)”
PERFORMER “Heart”
ISRC USQX91200639
INDEX 00 36:29:38
INDEX 01 36:30:24
TRACK 11 AUDIO
TITLE “Little Queen”
PERFORMER “Heart”
ISRC USSM10404446
INDEX 00 41:07:74
INDEX 01 41:09:24
TRACK 12 AUDIO
TITLE “Kick It Out”
PERFORMER “Heart”
ISRC USSM17700355
INDEX 00 46:21:68
INDEX 01 46:23:24
TRACK 13 AUDIO
TITLE “Here Song (Demo) (Previously unreleased)”
PERFORMER “Heart”
ISRC USQX91200640
INDEX 00 49:08:04
INDEX 01 49:10:24
TRACK 14 AUDIO
TITLE “Heartless (Demo) (Previously unreleased)”
PERFORMER “Heart”
ISRC USQX91200641
INDEX 00 50:44:63
INDEX 01 50:46:24
TRACK 15 AUDIO
TITLE “Dog & Butterfly (Acoustic demo) (Previously unreleased)”
PERFORMER “Heart”
ISRC USQX91200642
INDEX 00 55:40:06
INDEX 01 55:42:24
TRACK 16 AUDIO
TITLE “Straight On”
PERFORMER “Heart”
ISRC USSM19916396
INDEX 00 60:39:69
INDEX 01 60:42:12
TRACK 17 AUDIO
TITLE “Nada One”
PERFORMER “Heart”
ISRC USSM10404509
INDEX 00 65:48:31
INDEX 01 65:49:24

REM GENRE Rock
REM DATE 2012
REM DISCID F80F2D11
REM COMMENT “ExactAudioCopy v1.1”
PERFORMER “Heart”
TITLE “Strange Euphoria”
FILE “Heart – Strange Euphoria (CD-2).flac” WAVE
TRACK 01 AUDIO
TITLE “Bebe Le Strange”
PERFORMER “Heart”
ISRC USSM19921941
INDEX 01 00:00:00
TRACK 02 AUDIO
TITLE “Silver Wheels II”
PERFORMER “Heart”
ISRC USSM18000717
INDEX 00 03:39:51
INDEX 01 03:41:33
TRACK 03 AUDIO
TITLE “Even It Up”
PERFORMER “Heart”
ISRC USSM18000258
INDEX 00 05:04:23
INDEX 01 05:06:54
TRACK 04 AUDIO
TITLE “Sweet Darlin'”
PERFORMER “Heart”
ISRC USSM19921944
INDEX 00 10:17:45
INDEX 01 10:19:27
TRACK 05 AUDIO
TITLE “City’s Burning”
PERFORMER “Heart”
ISRC USSM18200250
INDEX 00 13:36:53
INDEX 01 13:38:35
TRACK 06 AUDIO
TITLE “Angels”
PERFORMER “Heart”
ISRC USSM10025576
INDEX 00 18:02:49
INDEX 01 18:05:60
TRACK 07 AUDIO
TITLE “Love Mistake”
PERFORMER “Heart”
ISRC USSM10022543
INDEX 00 21:05:08
INDEX 01 21:07:24
TRACK 08 AUDIO
TITLE “Lucky Day (Demo) (Previously unreleased)”
PERFORMER “Heart”
ISRC USQX91200643
INDEX 00 24:32:51
INDEX 01 24:35:24
TRACK 09 AUDIO
TITLE “Never (Live, with John Paul Jones) (Previously unreleased)”
PERFORMER “Heart”
ISRC USCA21201285
INDEX 00 28:05:14
INDEX 01 28:07:24
TRACK 10 AUDIO
TITLE “These Dreams”
PERFORMER “Heart”
ISRC USCA28500010
INDEX 00 32:16:13
INDEX 01 32:17:70
TRACK 11 AUDIO
TITLE “Nobody Home”
PERFORMER “Heart”
ISRC USCA28500226
INDEX 00 36:30:13
INDEX 01 36:31:70
TRACK 12 AUDIO
TITLE “Alone”
PERFORMER “Heart”
ISRC USCA28700690
INDEX 00 40:39:41
INDEX 01 40:41:31
TRACK 13 AUDIO
TITLE “Wait For An Answer”
PERFORMER “Heart”
ISRC USCA28700689
INDEX 00 44:20:24
INDEX 01 44:22:31
TRACK 14 AUDIO
TITLE “Unconditional Love (Demo) (Previously unreleased)”
PERFORMER “Heart”
ISRC USQX91200647
INDEX 00 48:52:01
INDEX 01 48:53:70
TRACK 15 AUDIO
TITLE “High Romance (Demo) (Previously unreleased)”
PERFORMER “Heart”
ISRC USQX91200648
INDEX 00 53:26:13
INDEX 01 53:27:70
TRACK 16 AUDIO
TITLE “Under The Sky (Demo) (Previously unreleased)”
PERFORMER “Heart”
ISRC USCA21201288
INDEX 00 56:49:04
INDEX 01 56:50:68
TRACK 17 AUDIO
TITLE “Desire Walks On (Beach Demo version) (Previously unreleased)”
PERFORMER “Heart”
ISRC USQX91200650
INDEX 00 59:42:09
INDEX 01 59:43:70

REM GENRE Rock
REM DATE 2012
REM DISCID EB0EFB11
REM COMMENT “ExactAudioCopy v1.1”
PERFORMER “Heart”
TITLE “Strange Euphoria”
FILE “Heart – Strange Euphoria (CD-3).flac” WAVE
TRACK 01 AUDIO
TITLE “Kiss (by The Lovemongers)”
PERFORMER “Heart”
ISRC USQX91200651
INDEX 01 00:00:00
TRACK 02 AUDIO
TITLE “Sand (Live) (by The Lovemongers)”
PERFORMER “Heart”
ISRC USQX91200652
INDEX 00 05:06:37
INDEX 01 05:08:19
TRACK 03 AUDIO
TITLE “Everything (Live) (by Nancy Wilson)”
PERFORMER “Heart”
ISRC USSM19805542
INDEX 00 09:42:35
INDEX 01 09:44:12
TRACK 04 AUDIO
TITLE “She Still Believes (Live) (Previously unreleased)”
PERFORMER “Heart”
ISRC USQX91200653
INDEX 00 14:28:66
INDEX 01 14:30:48
TRACK 05 AUDIO
TITLE “Any Woman’s Blues (Demo) (with the Seattle Blues Revue Horns) (Previously unreleased)”
PERFORMER “Heart”
ISRC USQX91200654
INDEX 00 18:09:51
INDEX 01 18:11:33
TRACK 06 AUDIO
TITLE “Strange Euphoria”
PERFORMER “Heart”
ISRC USSM10802637
INDEX 00 22:10:54
INDEX 01 22:12:48
TRACK 07 AUDIO
TITLE “Boppy’s Back (Demo) (Previously unreleased)”
PERFORMER “Heart”
ISRC USQX91200656
INDEX 00 24:56:39
INDEX 01 24:58:21
TRACK 08 AUDIO
TITLE “Friend Meets Friend (Live) (by The Lovemongers) (Previously unreleased)”
PERFORMER “Heart”
ISRC USQX91200657
INDEX 00 27:06:10
INDEX 01 27:08:48
TRACK 09 AUDIO
TITLE “Love Or Madness (Live) (Previously unreleased)”
PERFORMER “Heart”
ISRC USQX91200658
INDEX 00 30:02:19
INDEX 01 30:04:12
TRACK 10 AUDIO
TITLE “Skin To Skin (Previously unreleased)”
PERFORMER “Heart”
ISRC USQX91200659
INDEX 00 32:52:48
INDEX 01 32:54:48
TRACK 11 AUDIO
TITLE “Fallen Ones”
PERFORMER “Heart”
ISRC USAHB0800307
INDEX 00 37:15:57
INDEX 01 37:17:12
TRACK 12 AUDIO
TITLE “Enough”
PERFORMER “Heart”
ISRC USAHB0800298
INDEX 00 40:58:57
INDEX 01 41:00:12
TRACK 13 AUDIO
TITLE “Lost Angel (Live) (Previously unreleased)”
PERFORMER “Heart”
ISRC USQX91200660
INDEX 00 44:25:15
INDEX 01 44:26:48
TRACK 14 AUDIO
TITLE “Little Problems, Little Lies (by Ann Wilson)”
PERFORMER “Heart”
ISRC USZO10708512
INDEX 00 51:17:09
INDEX 01 51:19:66
TRACK 15 AUDIO
TITLE “Queen City”
PERFORMER “Heart”
ISRC USQX91000434
INDEX 00 54:49:68
INDEX 01 54:51:35
TRACK 16 AUDIO
TITLE “Hey You”
PERFORMER “Heart”
ISRC USQX91000435
INDEX 00 59:04:42
INDEX 01 59:06:35
TRACK 17 AUDIO
TITLE “Avalon (Reprise)”
PERFORMER “Heart”
ISRC USCA29300799
INDEX 00 63:18:11
INDEX 01 63:21:29


Leave a Reply

Your email address will not be published. Required fields are marked *

Enter the text from the image below
 

This site uses Akismet to reduce spam. Learn how your comment data is processed.