Heart – Rock The House Live! (Japanese Edition)




Artist: Heart
Year: 1991
Genre: Rock
Notes: Discogs
Add. Notes: Japanese Edition
Cover incl.: Yes
Encoder: FLAC
Bitrate: ~1000 kBit/s (44.1 kHz/16 Bit/s)
Log & Cue incl.: Yes
Size: 485 MB
Password: “slam” (without ” “)


All Downloads/Hosters are compatible

Download 1
KatFile.com
Rapidgator.net
Turbobit.net
FileFactory.com
Download 2
KatFile.com
Rapidgator.net
Turbobit.net
FileFactory.com

Tracklist:

1. Wild Child
2. Fallen From Grace
3. Call Of The Wild
4. How Can I Refuse
5. Shell Shock
6. Love Alive
7. Under The Sky
8. The Night
9. Tall, Dark Handsome Strangers
10. If Looks Could Kill
11. Who Will You Run To
12. You're The Voice
13. The Way Back Machine
14. Barracuda

EAC-Log, CUE-Sheed & NFO:

Click to open spoiler
Exact Audio Copy V1.1 from 23. June 2015

EAC extraction logfile from 23. April 2016, 12:51

Heart / Rock The House Live!

Used drive : ASUS DRW-24B1ST Adapter: 1 ID: 1

Read mode : Secure
Utilize accurate stream : Yes
Defeat audio cache : Yes
Make use of C2 pointers : No

Read offset correction : 6
Overread into Lead-In and Lead-Out : No
Fill up missing offset samples with silence : Yes
Delete leading and trailing silent blocks : No
Null samples used in CRC calculations : Yes
Used interface : Native Win32 interface for Win NT & 2000

Used output format : User Defined Encoder
Selected bitrate : 1024 kBit/s
Quality : High
Add ID3 tag : No
Command line compressor : C:\Program Files (x86)\Exact Audio Copy\Flac\flac.exe
Additional command line options : -V -8 -T “Date=%year%” -T “Genre=%genre%” %source%

TOC of the extracted CD

Track | Start | Length | Start sector | End sector
———————————————————
1 | 0:00.32 | 5:20.43 | 32 | 24074
2 | 5:21.00 | 4:26.05 | 24075 | 44029
3 | 9:47.05 | 4:31.70 | 44030 | 64424
4 | 14:19.00 | 5:04.67 | 64425 | 87291
5 | 19:23.67 | 4:15.28 | 87292 | 106444
6 | 23:39.20 | 5:29.32 | 106445 | 131151
7 | 29:08.52 | 3:05.73 | 131152 | 145099
8 | 32:14.50 | 6:51.70 | 145100 | 175994
9 | 39:06.45 | 3:56.30 | 175995 | 193724
10 | 43:03.00 | 3:36.50 | 193725 | 209974
11 | 46:39.50 | 4:17.00 | 209975 | 229249
12 | 50:56.50 | 5:59.00 | 229250 | 256174
13 | 56:55.50 | 0:57.50 | 256175 | 260499
14 | 57:53.25 | 4:50.67 | 260500 | 282316

Range status and errors

Selected range

Filename E:\Torrent\# MY\Heart – Discography\1991 – Rock The House Live! (Capitol, TOCP-6830, Japan)\Heart – Rock The House Live!.wav

Peak level 100.0 %
Extraction speed 5.9 X
Range quality 99.9 %
Test CRC 7B08B367
Copy CRC 7B08B367
Copy OK

No errors occurred

AccurateRip summary

Track 1 cannot be verified as accurate (confidence 41) [9DFAA8D5], AccurateRip returned [27484B48] (AR v2)
Track 2 cannot be verified as accurate (confidence 41) [949BCEB7], AccurateRip returned [06D433A4] (AR v2)
Track 3 cannot be verified as accurate (confidence 41) [2467EBB6], AccurateRip returned [D27E979F] (AR v2)
Track 4 cannot be verified as accurate (confidence 40) [914B074C], AccurateRip returned [1E4BD5B8] (AR v2)
Track 5 cannot be verified as accurate (confidence 40) [3183EFE4], AccurateRip returned [E88A73FA] (AR v2)
Track 6 cannot be verified as accurate (confidence 41) [E0F71774], AccurateRip returned [A5F72061] (AR v2)
Track 7 cannot be verified as accurate (confidence 41) [4CEAE2D0], AccurateRip returned [06CFF689] (AR v2)
Track 8 cannot be verified as accurate (confidence 41) [1C8898E6], AccurateRip returned [6477AFB9] (AR v2)
Track 9 cannot be verified as accurate (confidence 41) [A9FE41BD], AccurateRip returned [F3FEEC8E] (AR v2)
Track 10 cannot be verified as accurate (confidence 40) [C88489AC], AccurateRip returned [5881ED11] (AR v2)
Track 11 cannot be verified as accurate (confidence 40) [39F2D8B4], AccurateRip returned [B18A99EE] (AR v2)
Track 12 cannot be verified as accurate (confidence 41) [8AE544D1], AccurateRip returned [BCFD4DD1] (AR v2)
Track 13 cannot be verified as accurate (confidence 40) [479E5D2E], AccurateRip returned [19FC9855] (AR v2)
Track 14 cannot be verified as accurate (confidence 40) [5F09EDAE], AccurateRip returned [6316561B] (AR v2)

No tracks could be verified as accurate
You may have a different pressing from the one(s) in the database

End of status report

—- CUETools DB Plugin V2.1.6

[CTDB TOCID: iF9LMBob1qZcpnMJfW9UftN_3f8-] found
Submit result: iF9LMBob1qZcpnMJfW9UftN_3f8- has been confirmed
Track | CTDB Status
1 | (38/43) Accurately ripped
2 | (38/43) Accurately ripped
3 | (39/43) Accurately ripped
4 | (39/43) Accurately ripped
5 | (39/43) Accurately ripped
6 | (39/43) Accurately ripped
7 | (39/43) Accurately ripped
8 | (38/43) Accurately ripped
9 | (38/43) Accurately ripped
10 | (38/43) Accurately ripped
11 | (38/43) Accurately ripped
12 | (37/43) Accurately ripped
13 | (38/43) Accurately ripped
14 | (36/43) Accurately ripped

==== Log checksum 238A2EC92EF3613C7259210BC4EBEB0EEDDACDF57B45E5E3C38203B396D60F04 ====

REM GENRE “Hard Rock”
REM DATE 1991
REM DISCID C60EB40E
REM COMMENT “ExactAudioCopy v1.1”
CATALOG 0000000000000
PERFORMER “Heart”
TITLE “Rock The House Live!”
FILE “Heart – Rock The House Live!.flac” WAVE
TRACK 01 AUDIO
TITLE “Wild Child”
PERFORMER “Heart”
INDEX 00 00:00:00
INDEX 01 00:00:32
TRACK 02 AUDIO
TITLE “Fallen From Grace”
PERFORMER “Heart”
INDEX 00 05:20:72
INDEX 01 05:21:00
TRACK 03 AUDIO
TITLE “Call Of The Wild”
PERFORMER “Heart”
INDEX 00 09:47:02
INDEX 01 09:47:05
TRACK 04 AUDIO
TITLE “How Can I Refuse”
PERFORMER “Heart”
INDEX 00 14:18:72
INDEX 01 14:19:00
TRACK 05 AUDIO
TITLE “Shell Shock”
PERFORMER “Heart”
INDEX 00 19:23:65
INDEX 01 19:23:67
TRACK 06 AUDIO
TITLE “Love Alive”
PERFORMER “Heart”
INDEX 00 23:39:17
INDEX 01 23:39:20
TRACK 07 AUDIO
TITLE “Under The Sky”
PERFORMER “Heart”
INDEX 00 29:08:50
INDEX 01 29:08:52
TRACK 08 AUDIO
TITLE “The Night”
PERFORMER “Heart”
INDEX 00 32:14:47
INDEX 01 32:14:50
TRACK 09 AUDIO
TITLE “Tall, Dark Handsome Stranger”
PERFORMER “Heart”
INDEX 00 39:06:42
INDEX 01 39:06:45
TRACK 10 AUDIO
TITLE “If Looks Could Kill”
PERFORMER “Heart”
INDEX 00 43:02:72
INDEX 01 43:03:00
TRACK 11 AUDIO
TITLE “Who Will You Run To”
PERFORMER “Heart”
INDEX 00 46:39:47
INDEX 01 46:39:50
TRACK 12 AUDIO
TITLE “You’re The Voice”
PERFORMER “Heart”
INDEX 00 50:56:47
INDEX 01 50:56:50
TRACK 13 AUDIO
TITLE “The Way Back Machine”
PERFORMER “Heart”
INDEX 00 56:55:47
INDEX 01 56:55:50
TRACK 14 AUDIO
TITLE “Barracuda”
PERFORMER “Heart”
INDEX 00 57:53:22
INDEX 01 57:53:25


Leave a Reply

Your email address will not be published. Required fields are marked *

Enter the text from the image below
 

This site uses Akismet to reduce spam. Learn how your comment data is processed.