Heart – Red Velvet Car




[Total: 0    Average: 0/5]

Artist: Heart
Year: 2010
Genre: Rock
Notes: Discogs
Add. Notes:
Cover incl.: Yes
Encoder: FLAC
Bitrate: ~900 kBit/s (44.1 kHz/16 Bit/s)
Log & Cue incl.: Yes
Size: 368,24 MB
Password: “slam” (without ” “)


All Downloads/Hosters are compatible

Download 1
Share-online.biz
KatFile.com
Rapidgator.net
Download 2
Share-online.biz
KatFile.com
Rapidgator.net

Tracklist:

1 - There If You Go - 3:39
2 - WTF - 3:26
3 - Red Velvet Car - 3:00
4 - Queen City - 4:16
5 - Hey You - 4:14
6 - Wheels - 3:06
7 - Safronia's Mark - 3:54
8 - Death Valley - 3:53
9 - Sunflower - 3:42
10 - Sand - 4:08
Bonus Tracks
11 - Bootful Of Beer - 2:58
12 - Closer To The Sun - 4:51

EAC-Log, CUE-Sheed & NFO:

Click to open spoiler
Exact Audio Copy V1.1 from 23. June 2015

EAC extraction logfile from 19. October 2015, 9:26

Heart / Red Velvet Car

Used drive : Optiarc DVD-ROM DDU1675S Adapter: 1 ID: 0

Read mode : Secure
Utilize accurate stream : Yes
Defeat audio cache : Yes
Make use of C2 pointers : No

Read offset correction : 6
Overread into Lead-In and Lead-Out : No
Fill up missing offset samples with silence : Yes
Delete leading and trailing silent blocks : No
Null samples used in CRC calculations : Yes
Used interface : Native Win32 interface for Win NT & 2000

Used output format : User Defined Encoder
Selected bitrate : 1024 kBit/s
Quality : High
Add ID3 tag : No
Command line compressor : C:\Program Files (x86)\Exact Audio Copy\Flac\flac.exe
Additional command line options : -V -8 -T “Date=%year%” -T “Genre=%genre%” %source%

TOC of the extracted CD

Track | Start | Length | Start sector | End sector
———————————————————
1 | 0:00.00 | 3:39.18 | 0 | 16442
2 | 3:39.18 | 3:26.20 | 16443 | 31912
3 | 7:05.38 | 3:00.08 | 31913 | 45420
4 | 10:05.46 | 4:16.27 | 45421 | 64647
5 | 14:21.73 | 4:14.42 | 64648 | 83739
6 | 18:36.40 | 3:06.37 | 83740 | 97726
7 | 21:43.02 | 3:54.01 | 97727 | 115277
8 | 25:37.03 | 3:53.20 | 115278 | 132772
9 | 29:30.23 | 3:42.26 | 132773 | 149448
10 | 33:12.49 | 4:08.60 | 149449 | 168108
11 | 37:21.34 | 2:58.43 | 168109 | 181501
12 | 40:20.02 | 4:51.13 | 181502 | 203339

Range status and errors

Selected range

Filename E:\Torrent\# MY\# Подготовка раздач\Heart – Discography\2010 – Red Velvet Car (Eagle Records, EAGCD424, Germany)\Heart – Red Velvet Car.wav

Peak level 98.8 %
Extraction speed 4.2 X
Range quality 100.0 %
Test CRC 802A9E84
Copy CRC 802A9E84
Copy OK

No errors occurred

AccurateRip summary

Track 1 accurately ripped (confidence 20) [50CFC10D] (AR v2)
Track 2 accurately ripped (confidence 20) [293FED0D] (AR v2)
Track 3 accurately ripped (confidence 20) [6011EE1F] (AR v2)
Track 4 accurately ripped (confidence 20) [CA496494] (AR v2)
Track 5 accurately ripped (confidence 21) [8DECC7F5] (AR v2)
Track 6 accurately ripped (confidence 20) [9345E0F5] (AR v2)
Track 7 accurately ripped (confidence 21) [C0C6F9F2] (AR v2)
Track 8 accurately ripped (confidence 20) [AD755F8E] (AR v2)
Track 9 accurately ripped (confidence 20) [F2BBA8BD] (AR v2)
Track 10 accurately ripped (confidence 20) [77ECFC3E] (AR v2)
Track 11 accurately ripped (confidence 20) [90A9D655] (AR v2)
Track 12 accurately ripped (confidence 19) [709BEED9] (AR v2)

All tracks accurately ripped

End of status report

—- CUETools DB Plugin V2.1.6

[CTDB TOCID: .7uOPaDQyxHEpHiL4b5iRjB4p2U-] found
Submit result: .7uOPaDQyxHEpHiL4b5iRjB4p2U- has been confirmed
Track | CTDB Status
1 | (7/7) Accurately ripped
2 | (7/7) Accurately ripped
3 | (7/7) Accurately ripped
4 | (7/7) Accurately ripped
5 | (7/7) Accurately ripped
6 | (7/7) Accurately ripped
7 | (7/7) Accurately ripped
8 | (7/7) Accurately ripped
9 | (7/7) Accurately ripped
10 | (7/7) Accurately ripped
11 | (7/7) Accurately ripped
12 | (7/7) Accurately ripped

==== Log checksum 7E9C2E93C548E05B4D02372A84A28F2C608F73E6698315F5096621C37AD882AE ====

REM GENRE Rock
REM DATE 2010
REM DISCID 950A970C
REM COMMENT “ExactAudioCopy v1.1”
PERFORMER “Heart”
TITLE “Red Velvet Car”
FILE “Heart – Red Velvet Car.flac” WAVE
TRACK 01 AUDIO
TITLE “There You Go”
PERFORMER “Heart”
ISRC USQX91000431
INDEX 01 00:00:00
TRACK 02 AUDIO
TITLE “WTF”
PERFORMER “Heart”
ISRC USQX91000432
INDEX 00 03:37:18
INDEX 01 03:39:18
TRACK 03 AUDIO
TITLE “Red Velvet Car”
PERFORMER “Heart”
ISRC USQX91000433
INDEX 00 07:03:38
INDEX 01 07:05:38
TRACK 04 AUDIO
TITLE “Queen City”
PERFORMER “Heart”
ISRC USQX91000434
INDEX 00 10:03:46
INDEX 01 10:05:46
TRACK 05 AUDIO
TITLE “Hey You”
PERFORMER “Heart”
ISRC USQX91000435
INDEX 00 14:19:73
INDEX 01 14:21:73
TRACK 06 AUDIO
TITLE “Wheels”
PERFORMER “Heart”
ISRC USQX91000436
INDEX 00 18:34:40
INDEX 01 18:36:40
TRACK 07 AUDIO
TITLE “Safronia’s Mark”
PERFORMER “Heart”
ISRC USQX91000437
INDEX 00 21:41:02
INDEX 01 21:43:02
TRACK 08 AUDIO
TITLE “Death Valley”
PERFORMER “Heart”
ISRC USQX91000438
INDEX 00 25:35:03
INDEX 01 25:37:03
TRACK 09 AUDIO
TITLE “Sunflower”
PERFORMER “Heart”
ISRC USQX91000439
INDEX 00 29:28:23
INDEX 01 29:30:23
TRACK 10 AUDIO
TITLE “Sand”
PERFORMER “Heart”
ISRC USQX91000440
INDEX 00 33:10:49
INDEX 01 33:12:49
TRACK 11 AUDIO
TITLE “Bootful Of Beer (Bonus track)”
PERFORMER “Heart”
ISRC USQX91000597
INDEX 00 37:19:34
INDEX 01 37:21:34
TRACK 12 AUDIO
TITLE “Closer To The Sun (Bonus track)”
PERFORMER “Heart”
ISRC USQX91000598
INDEX 00 40:18:02
INDEX 01 40:20:02


Spread the Download

Leave a Reply

Your email address will not be published. Required fields are marked *

Enter the text from the image below
 

This site uses Akismet to reduce spam. Learn how your comment data is processed.