Heart – Red Velvet Car (Japanese Edition)




Artist: Heart
Year: 2010
Genre: Rock
Notes: Discogs
Add. Notes: Japanese Edition
Cover incl.: Yes
Encoder: FLAC
Bitrate: ~900 kBit/s (44.1 kHz/16 Bit/s)
Log & Cue incl.: Yes
Size: 378,7 MB
Password: “slam” (without ” “)


All Downloads/Hosters are compatible

Download 1
KatFile.com
Turbobit.net
FileFactory.com
Rapidgator.net
Download 2
KatFile.com
Turbobit.net
FileFactory.com
Rapidgator.net

Tracklist:

1. There You Go
2. WTF
3. Red Velvet Car
4. Queen City
5. Hey You
6. Wheels
7. Safronia's Mark
8. Death Valley
9. Sunflower
10. Sand
Bonus Tracks
11. Bootful Of Beer
12. Closer To The Sun
13. Listening

EAC-Log, CUE-Sheed & NFO:

Click to open spoiler
Exact Audio Copy V1.1 from 23. June 2015

EAC extraction logfile from 8. September 2016, 21:17

Heart / Red Velvet Car

Used drive : ASUS DRW-24B1ST Adapter: 1 ID: 1

Read mode : Secure
Utilize accurate stream : Yes
Defeat audio cache : Yes
Make use of C2 pointers : No

Read offset correction : 6
Overread into Lead-In and Lead-Out : No
Fill up missing offset samples with silence : Yes
Delete leading and trailing silent blocks : No
Null samples used in CRC calculations : Yes
Used interface : Native Win32 interface for Win NT & 2000

Used output format : User Defined Encoder
Selected bitrate : 1024 kBit/s
Quality : High
Add ID3 tag : No
Command line compressor : C:\Program Files (x86)\Exact Audio Copy\Flac\flac.exe
Additional command line options : -V -8 -T “Date=%year%” -T “Genre=%genre%” %source%

TOC of the extracted CD

Track | Start | Length | Start sector | End sector
———————————————————
1 | 0:00.00 | 3:38.18 | 0 | 16367
2 | 3:38.18 | 3:26.20 | 16368 | 31837
3 | 7:04.38 | 3:00.08 | 31838 | 45345
4 | 10:04.46 | 4:16.27 | 45346 | 64572
5 | 14:20.73 | 4:14.42 | 64573 | 83664
6 | 18:35.40 | 3:06.37 | 83665 | 97651
7 | 21:42.02 | 3:54.01 | 97652 | 115202
8 | 25:36.03 | 3:53.20 | 115203 | 132697
9 | 29:29.23 | 3:42.26 | 132698 | 149373
10 | 33:11.49 | 4:08.60 | 149374 | 168033
11 | 37:20.34 | 2:58.43 | 168034 | 181426
12 | 40:19.02 | 4:52.25 | 181427 | 203351
13 | 45:11.27 | 4:18.34 | 203352 | 222735

Range status and errors

Selected range

Filename E:\Torrent\# MY\# Подготовка раздач\Heart\2010 – Red Velvet Car (Eagle Records, IECP-10235, Japan)\Heart – Red Velvet Car.wav

Peak level 98.8 %
Extraction speed 2.9 X
Range quality 100.0 %
Test CRC CA03816F
Copy CRC CA03816F
Copy OK

No errors occurred

AccurateRip summary

Track 1 accurately ripped (confidence 1) [86907433] (AR v2)
Track 2 accurately ripped (confidence 1) [C582A960] (AR v2)
Track 3 accurately ripped (confidence 1) [270D0CB2] (AR v2)
Track 4 accurately ripped (confidence 1) [E2076A18] (AR v2)
Track 5 accurately ripped (confidence 1) [FFAC2C85] (AR v2)
Track 6 accurately ripped (confidence 1) [4A549993] (AR v2)
Track 7 accurately ripped (confidence 1) [33EECC9F] (AR v2)
Track 8 accurately ripped (confidence 1) [1B0DBF6C] (AR v2)
Track 9 accurately ripped (confidence 1) [D84A62D2] (AR v2)
Track 10 accurately ripped (confidence 1) [6464B6B6] (AR v2)
Track 11 accurately ripped (confidence 1) [22AB4C5F] (AR v2)
Track 12 accurately ripped (confidence 1) [AFBC7DE5] (AR v2)
Track 13 accurately ripped (confidence 1) [8E3EBE24] (AR v2)

All tracks accurately ripped

End of status report

—- CUETools DB Plugin V2.1.6

[CTDB TOCID: 4FUFY_t8qt9IglddU6_bujRpA48-] found
Submit result: 4FUFY_t8qt9IglddU6_bujRpA48- has been confirmed
Track | CTDB Status
1 | (3/3) Accurately ripped
2 | (3/3) Accurately ripped
3 | (3/3) Accurately ripped
4 | (3/3) Accurately ripped
5 | (3/3) Accurately ripped
6 | (3/3) Accurately ripped
7 | (3/3) Accurately ripped
8 | (3/3) Accurately ripped
9 | (3/3) Accurately ripped
10 | (3/3) Accurately ripped
11 | (3/3) Accurately ripped
12 | (3/3) Accurately ripped
13 | (3/3) Accurately ripped

==== Log checksum 3DCAFF46206488AE20E5918702A6813357F0C60D3770C9D86890463517EFFC2C ====

REM GENRE “Hard Rock”
REM DATE 2010
REM DISCID 970B990D
REM COMMENT “ExactAudioCopy v1.1”
PERFORMER “Heart”
TITLE “Red Velvet Car”
FILE “Heart – Red Velvet Car.flac” WAVE
TRACK 01 AUDIO
TITLE “There You Go”
PERFORMER “Heart”
ISRC USQX91000431
INDEX 01 00:00:00
TRACK 02 AUDIO
TITLE “WTF”
PERFORMER “Heart”
ISRC USQX91000432
INDEX 00 03:36:18
INDEX 01 03:38:18
TRACK 03 AUDIO
TITLE “Red Velvet Car”
PERFORMER “Heart”
ISRC USQX91000433
INDEX 00 07:02:38
INDEX 01 07:04:38
TRACK 04 AUDIO
TITLE “Queen City”
PERFORMER “Heart”
ISRC USQX91000434
INDEX 00 10:02:46
INDEX 01 10:04:46
TRACK 05 AUDIO
TITLE “Hey You”
PERFORMER “Heart”
ISRC USQX91000435
INDEX 00 14:18:73
INDEX 01 14:20:73
TRACK 06 AUDIO
TITLE “Wheels”
PERFORMER “Heart”
ISRC USQX91000436
INDEX 00 18:33:40
INDEX 01 18:35:40
TRACK 07 AUDIO
TITLE “Safronia’s Mark”
PERFORMER “Heart”
ISRC USQX91000437
INDEX 00 21:40:02
INDEX 01 21:42:02
TRACK 08 AUDIO
TITLE “Death Valley”
PERFORMER “Heart”
ISRC USQX91000438
INDEX 00 25:34:03
INDEX 01 25:36:03
TRACK 09 AUDIO
TITLE “Sunflower”
PERFORMER “Heart”
ISRC USQX91000439
INDEX 00 29:27:23
INDEX 01 29:29:23
TRACK 10 AUDIO
TITLE “Sand”
PERFORMER “Heart”
ISRC USQX91000440
INDEX 00 33:09:49
INDEX 01 33:11:49
TRACK 11 AUDIO
TITLE “Bootful Of Beer (Bonus track)”
PERFORMER “Heart”
ISRC USQX91000597
INDEX 00 37:18:34
INDEX 01 37:20:34
TRACK 12 AUDIO
TITLE “Closer To The Sun (Bonus track)”
PERFORMER “Heart”
ISRC USQX91000598
INDEX 00 40:17:02
INDEX 01 40:19:02
TRACK 13 AUDIO
TITLE “Listening (Bonus track)”
PERFORMER “Heart”
ISRC USQX91000599
INDEX 00 45:09:27
INDEX 01 45:11:27


0

Publication author

offline 10 hours

Chaos

3
Comments: 3Publics: 3189Registration: 02-02-2019
Spread the Download

Leave a Reply

Your email address will not be published. Required fields are marked *

Enter the text from the image below
 

This site uses Akismet to reduce spam. Learn how your comment data is processed.