Heart – Private Audition (Reissue)




Artist: Heart
Year: 1982/2011
Genre: Rock
Notes: Discogs
Add. Notes: Reissue
Cover incl.: Yes
Encoder: FLAC
Bitrate: ~800 kBit/s (44.1 kHz/16 Bit/s)
Log & Cue incl.: Yes
Size: 271,6 MB
Password: “slam” (without ” “)


All Downloads/Hosters are compatible

Download 1
Turbobit.net
KatFile.com
Rapidgator.net
NitroFlare.com
Download 2
Turbobit.net
KatFile.com
Rapidgator.net
NitroFlare.com

Tracklist:

1  - City's Burning  - 4:26
2  - Bright Light Girl  - 3:19
3  - Perfect Stranger  - 3:51
4  - Private Audition  - 3:19
5  - Angels  - 3:00
6  - This Man Is Mine  - 3:00
7  - The Situation  - 4:33
8  - Hey Darlin Darlin  - 3:43
9  - One Word  - 4:32
10  - Fast Times  - 3:51
11  - America  - 2:45

EAC-Log, CUE-Sheed & NFO:

Click to open spoiler
Exact Audio Copy V1.1 from 23. June 2015

EAC extraction logfile from 30. September 2015, 18:44

Heart / Private Audition

Used drive : Optiarc DVD-ROM DDU1675S Adapter: 1 ID: 0

Read mode : Secure
Utilize accurate stream : Yes
Defeat audio cache : Yes
Make use of C2 pointers : No

Read offset correction : 6
Overread into Lead-In and Lead-Out : No
Fill up missing offset samples with silence : Yes
Delete leading and trailing silent blocks : No
Null samples used in CRC calculations : Yes
Used interface : Native Win32 interface for Win NT & 2000

Used output format : User Defined Encoder
Selected bitrate : 1024 kBit/s
Quality : High
Add ID3 tag : No
Command line compressor : F:\Install\All for Audio\Lossless\Codecs\FLAC.EXE
Additional command line options : -V -8 -T “Date=%year%” -T “Genre=%genre%” %source%

TOC of the extracted CD

Track | Start | Length | Start sector | End sector
———————————————————
1 | 0:00.00 | 4:25.52 | 0 | 19926
2 | 4:25.52 | 3:22.43 | 19927 | 35119
3 | 7:48.20 | 3:52.10 | 35120 | 52529
4 | 11:40.30 | 3:21.07 | 52530 | 67611
5 | 15:01.37 | 2:59.48 | 67612 | 81084
6 | 18:01.10 | 3:02.07 | 81085 | 94741
7 | 21:03.17 | 4:17.68 | 94742 | 114084
8 | 25:21.10 | 4:00.70 | 114085 | 132154
9 | 29:22.05 | 4:32.65 | 132155 | 152619
10 | 33:54.70 | 4:03.05 | 152620 | 170849
11 | 37:58.00 | 2:34.67 | 170850 | 182466

Range status and errors

Selected range

Filename E:\Torrent\# MY\# Подготовка раздач\Heart – Discography\1982 – Private Audition (Re-issue, Sony Music, 88697815972, U.S.A.)\Heart – Private Audition.wav

Peak level 94.0 %
Extraction speed 7.7 X
Range quality 99.9 %
Test CRC 46C9227A
Copy CRC 46C9227A
Copy OK

No errors occurred

AccurateRip summary

Track 1 accurately ripped (confidence 26) [F0B98D80] (AR v2)
Track 2 accurately ripped (confidence 26) [B1AB17F0] (AR v2)
Track 3 accurately ripped (confidence 26) [9C61E7BB] (AR v2)
Track 4 accurately ripped (confidence 26) [F22A42AF] (AR v2)
Track 5 accurately ripped (confidence 26) [A3CA2235] (AR v2)
Track 6 accurately ripped (confidence 26) [B65074DA] (AR v2)
Track 7 accurately ripped (confidence 27) [9EF2DD69] (AR v2)
Track 8 accurately ripped (confidence 27) [0242A663] (AR v2)
Track 9 accurately ripped (confidence 27) [B0CE60FF] (AR v2)
Track 10 accurately ripped (confidence 27) [192F43C7] (AR v2)
Track 11 accurately ripped (confidence 25) [9FECEC25] (AR v2)

All tracks accurately ripped

End of status report

—- CUETools DB Plugin V2.1.6

[CTDB TOCID: _0ONF2fDYlpdpkag9XHbL87fp3c-] found
Submit result: _0ONF2fDYlpdpkag9XHbL87fp3c- has been confirmed
Track | CTDB Status
1 | (23/23) Accurately ripped
2 | (23/23) Accurately ripped
3 | (23/23) Accurately ripped
4 | (23/23) Accurately ripped
5 | (23/23) Accurately ripped
6 | (23/23) Accurately ripped
7 | (23/23) Accurately ripped
8 | (23/23) Accurately ripped
9 | (23/23) Accurately ripped
10 | (23/23) Accurately ripped
11 | (22/23) Accurately ripped

==== Log checksum D48E02C03B4007D9F8A72A0E5314FC5181F196F9D23BDBD51BF9DABB7CE824EC ====

REM GENRE Rock
REM DATE 1982
REM DISCID 7F09800B
REM COMMENT “ExactAudioCopy v1.1”
PERFORMER “Heart”
TITLE “Private Audition”
FILE “Heart – Private Audition.flac” WAVE
TRACK 01 AUDIO
TITLE “City’s Burning”
PERFORMER “Heart”
INDEX 01 00:00:00
TRACK 02 AUDIO
TITLE “Bright Light Girl”
PERFORMER “Heart”
INDEX 01 04:25:52
TRACK 03 AUDIO
TITLE “Perfect Stranger”
PERFORMER “Heart”
INDEX 00 07:46:37
INDEX 01 07:48:20
TRACK 04 AUDIO
TITLE “Private Audition”
PERFORMER “Heart”
INDEX 00 11:39:22
INDEX 01 11:40:30
TRACK 05 AUDIO
TITLE “Angels”
PERFORMER “Heart”
INDEX 00 15:00:00
INDEX 01 15:01:37
TRACK 06 AUDIO
TITLE “This Man Is Mine”
PERFORMER “Heart”
INDEX 01 18:01:10
TRACK 07 AUDIO
TITLE “The Situation”
PERFORMER “Heart”
INDEX 00 21:00:67
INDEX 01 21:03:17
TRACK 08 AUDIO
TITLE “Hey Darlin Darlin”
PERFORMER “Heart”
INDEX 01 25:21:10
TRACK 09 AUDIO
TITLE “One Word”
PERFORMER “Heart”
INDEX 01 29:22:05
TRACK 10 AUDIO
TITLE “Fast Times”
PERFORMER “Heart”
INDEX 01 33:54:70
TRACK 11 AUDIO
TITLE “America”
PERFORMER “Heart”
INDEX 01 37:58:00


Leave a Reply

Your email address will not be published. Required fields are marked *

Enter the text from the image below
 

This site uses Akismet to reduce spam. Learn how your comment data is processed.