Heart – Passionworks (Remastered)




Artist: Heart
Year: 1983/1987
Genre: Rock
Notes: Discogs
Add. Notes: Remastered
Cover incl.: Yes
Encoder: FLAC
Bitrate: ~800 kBit/s (44.1 kHz/16 Bit/s)
Log & Cue incl.: Yes
Size: 307 MB
Password: “slam” (without ” “)


All Downloads/Hosters are compatible

Download 1
KatFile.com
Rapidgator.net
NitroFlare.com
Turbobit.net
Download 2
KatFile.com
Rapidgator.net
NitroFlare.com
Turbobit.net

Tracklist:

1 - How Can I Refuse - 3:54
2 - Blue Guitar - 3:58
3 - Johnny Moon - 4:03
4 - Sleep Alone - 4:15
5 - Together Now - 3:56
6 - Allies - 4:41
7 - (Beat By) Jealousy - 3:24
8 - Heavy Heart - 3:52
9 - Love Mistake - 3:30
10 - Language Of Love - 3:39
11 - Ambush - 3:17

EAC-Log, CUE-Sheed & NFO:

Click to open spoiler
Exact Audio Copy V1.1 from 23. June 2015

EAC extraction logfile from 1. October 2015, 12:27

Heart / Passionworks

Used drive : Optiarc DVD-ROM DDU1675S Adapter: 1 ID: 0

Read mode : Secure
Utilize accurate stream : Yes
Defeat audio cache : Yes
Make use of C2 pointers : No

Read offset correction : 6
Overread into Lead-In and Lead-Out : No
Fill up missing offset samples with silence : Yes
Delete leading and trailing silent blocks : No
Null samples used in CRC calculations : Yes
Used interface : Native Win32 interface for Win NT & 2000

Used output format : User Defined Encoder
Selected bitrate : 1024 kBit/s
Quality : High
Add ID3 tag : No
Command line compressor : F:\Install\All for Audio\Lossless\Codecs\FLAC.EXE
Additional command line options : -V -8 -T “Date=%year%” -T “Genre=%genre%” %source%

TOC of the extracted CD

Track | Start | Length | Start sector | End sector
———————————————————
1 | 0:00.00 | 3:54.45 | 0 | 17594
2 | 3:54.45 | 3:58.55 | 17595 | 35499
3 | 7:53.25 | 4:03.30 | 35500 | 53754
4 | 11:56.55 | 4:15.02 | 53755 | 72881
5 | 16:11.57 | 3:56.18 | 72882 | 90599
6 | 20:08.00 | 4:41.65 | 90600 | 111739
7 | 24:49.65 | 3:24.00 | 111740 | 127039
8 | 28:13.65 | 3:52.35 | 127040 | 144474
9 | 32:06.25 | 3:30.62 | 144475 | 160286
10 | 35:37.12 | 3:39.60 | 160287 | 176771
11 | 39:16.72 | 3:17.05 | 176772 | 191551

Range status and errors

Selected range

Filename E:\Torrent\# MY\# Подготовка раздач\Heart – Discography\1983 – Passionworks (Epic, EK 38800, U.S.A.)\Heart – Passionworks.wav

Peak level 89.3 %
Extraction speed 4.5 X
Range quality 100.0 %
Test CRC 659FD722
Copy CRC 659FD722
Copy OK

No errors occurred

AccurateRip summary

Track 1 accurately ripped (confidence 10) [8F55D5BF] (AR v2)
Track 2 accurately ripped (confidence 10) [A1C6F7CD] (AR v2)
Track 3 accurately ripped (confidence 10) [891EADDB] (AR v2)
Track 4 accurately ripped (confidence 10) [384EA039] (AR v2)
Track 5 accurately ripped (confidence 10) [2A60B0B2] (AR v2)
Track 6 accurately ripped (confidence 10) [51639427] (AR v2)
Track 7 accurately ripped (confidence 10) [5B0C47FC] (AR v2)
Track 8 accurately ripped (confidence 10) [D9185F14] (AR v2)
Track 9 accurately ripped (confidence 10) [F82A1327] (AR v2)
Track 10 accurately ripped (confidence 10) [60F3C057] (AR v2)
Track 11 accurately ripped (confidence 10) [DF34C5E0] (AR v2)

All tracks accurately ripped

End of status report

—- CUETools DB Plugin V2.1.6

[CTDB TOCID: aSFo8sSAT4KKWXbCSrZIOO4eqUQ-] found
Submit result: aSFo8sSAT4KKWXbCSrZIOO4eqUQ- has been confirmed
Track | CTDB Status
1 | (35/35) Accurately ripped
2 | (35/35) Accurately ripped
3 | (35/35) Accurately ripped
4 | (35/35) Accurately ripped
5 | (35/35) Accurately ripped
6 | (35/35) Accurately ripped
7 | (34/35) Accurately ripped
8 | (35/35) Accurately ripped
9 | (35/35) Accurately ripped
10 | (35/35) Accurately ripped
11 | (35/35) Accurately ripped

==== Log checksum 1CC76F84566C379E3E6146925908EA35B97B963BEB5D72F0CF601270F0B3412C ====

REM GENRE Rock
REM DATE 1983
REM DISCID 9D09FA0B
REM COMMENT “ExactAudioCopy v1.1”
PERFORMER “Heart”
TITLE “Passionworks”
FILE “Heart – Passionworks.flac” WAVE
TRACK 01 AUDIO
TITLE “How Can I Refuse”
PERFORMER “Heart”
INDEX 01 00:00:00
TRACK 02 AUDIO
TITLE “Blue Guitar”
PERFORMER “Heart”
INDEX 01 03:54:45
TRACK 03 AUDIO
TITLE “Johnny Moon”
PERFORMER “Heart”
INDEX 00 07:51:27
INDEX 01 07:53:25
TRACK 04 AUDIO
TITLE “Sleep Alone”
PERFORMER “Heart”
INDEX 01 11:56:55
TRACK 05 AUDIO
TITLE “Together Now”
PERFORMER “Heart”
INDEX 01 16:11:57
TRACK 06 AUDIO
TITLE “Allies”
PERFORMER “Heart”
INDEX 00 20:05:62
INDEX 01 20:08:00
TRACK 07 AUDIO
TITLE “(Beat By) Jealousy”
PERFORMER “Heart”
INDEX 01 24:49:65
TRACK 08 AUDIO
TITLE “Heavy Heart”
PERFORMER “Heart”
INDEX 00 28:12:07
INDEX 01 28:13:65
TRACK 09 AUDIO
TITLE “Love Mistake”
PERFORMER “Heart”
INDEX 01 32:06:25
TRACK 10 AUDIO
TITLE “Language Of Love”
PERFORMER “Heart”
INDEX 00 35:35:67
INDEX 01 35:37:12
TRACK 11 AUDIO
TITLE “Ambush”
PERFORMER “Heart”
INDEX 01 39:16:72


Leave a Reply

Your email address will not be published. Required fields are marked *

Enter the text from the image below
 

This site uses Akismet to reduce spam. Learn how your comment data is processed.