Heart – Magazine (Reissue)




Artist: Heart
Year: 1978/1995
Genre: Rock
Notes: Discogs
Add. Notes: Reissue
Cover incl.: Yes
Encoder: FLAC
Bitrate: ~800 kBit/s (44.1 kHz/16 Bit/s)
Log & Cue incl.: Yes
Size: 233,73 MB
Password: “slam” (without ” “)


All Downloads/Hosters are compatible

Download 1
Turbobit.net
KatFile.com
Rapidgator.net
Usersdrive.com
Download 2
Turbobit.net
KatFile.com
Rapidgator.net
Usersdrive.com

Tracklist:

1 - Heartless - 4:59
2 - Devil Delight - 4:58
3 - Just The Wine - 4:15
4 - Without You - 4:43
5 - Magazine - 6:19
6 - Here Song - 1:34
7 - Mother Earth Blues - 5:42
8 - I've Got The Music In Me - 6:01

EAC-Log, CUE-Sheed & NFO:

Click to open spoiler
Exact Audio Copy V1.1 from 23. June 2015

EAC extraction logfile from 30. September 2015, 10:03

Heart / Magazine

Used drive : Optiarc DVD-ROM DDU1675S Adapter: 1 ID: 0

Read mode : Secure
Utilize accurate stream : Yes
Defeat audio cache : Yes
Make use of C2 pointers : No

Read offset correction : 6
Overread into Lead-In and Lead-Out : No
Fill up missing offset samples with silence : Yes
Delete leading and trailing silent blocks : No
Null samples used in CRC calculations : Yes
Used interface : Native Win32 interface for Win NT & 2000

Used output format : User Defined Encoder
Selected bitrate : 1024 kBit/s
Quality : High
Add ID3 tag : No
Command line compressor : F:\Install\All for Audio\Lossless\Codecs\FLAC.EXE
Additional command line options : -V -8 -T “Date=%year%” -T “Genre=%genre%” %source%

TOC of the extracted CD

Track | Start | Length | Start sector | End sector
———————————————————
1 | 0:00.00 | 5:01.17 | 0 | 22591
2 | 5:01.17 | 5:00.40 | 22592 | 45131
3 | 10:01.57 | 4:16.23 | 45132 | 64354
4 | 14:18.05 | 4:43.00 | 64355 | 85579
5 | 19:01.05 | 6:22.07 | 85580 | 114236
6 | 25:23.12 | 1:34.35 | 114237 | 121321
7 | 26:57.47 | 5:59.33 | 121322 | 148279
8 | 32:57.05 | 6:17.05 | 148280 | 176559

Range status and errors

Selected range

Filename E:\Torrent\# MY\# Подготовка раздач\Heart – Discography\1978-1 – Magazine (Capitol, S21-18322, U.S.A.)\Heart – Magazine.wav

Peak level 99.0 %
Extraction speed 4.4 X
Range quality 100.0 %
Test CRC 8DFDE105
Copy CRC 8DFDE105
Copy OK

No errors occurred

AccurateRip summary

Track 1 accurately ripped (confidence 16) [DD714E9C] (AR v2)
Track 2 accurately ripped (confidence 16) [0298E41D] (AR v2)
Track 3 accurately ripped (confidence 16) [B3F71CCA] (AR v2)
Track 4 accurately ripped (confidence 16) [375A4049] (AR v2)
Track 5 accurately ripped (confidence 16) [2496F919] (AR v2)
Track 6 accurately ripped (confidence 16) [45D554B4] (AR v2)
Track 7 accurately ripped (confidence 16) [DCD51BEF] (AR v2)
Track 8 accurately ripped (confidence 16) [D61760BB] (AR v2)

All tracks accurately ripped

End of status report

—- CUETools DB Plugin V2.1.6

[CTDB TOCID: TGC4mur6xsbgnsgRWuptHGk3cDY-] found
Submit result: TGC4mur6xsbgnsgRWuptHGk3cDY- has been confirmed
Track | CTDB Status
1 | (28/29) Accurately ripped
2 | (28/29) Accurately ripped
3 | (28/29) Accurately ripped
4 | (28/29) Accurately ripped
5 | (28/29) Accurately ripped
6 | (28/29) Accurately ripped
7 | (28/29) Accurately ripped
8 | (28/29) Accurately ripped

==== Log checksum FE203D94523B3D8309859247A7BA3BEDDA37BBAE6896335F7C7C9864C2A0B24B ====

REM GENRE Rock
REM DATE 1978
REM DISCID 60093208
REM COMMENT “ExactAudioCopy v1.1”
CATALOG 0000000000000
PERFORMER “Heart”
TITLE “Magazine”
FILE “Heart – Magazine.flac” WAVE
TRACK 01 AUDIO
TITLE “Heartless”
PERFORMER “Heart”
INDEX 01 00:00:00
TRACK 02 AUDIO
TITLE “Devil Delight”
PERFORMER “Heart”
INDEX 01 05:01:17
TRACK 03 AUDIO
TITLE “Just The Wine”
PERFORMER “Heart”
INDEX 01 10:01:57
TRACK 04 AUDIO
TITLE “Without You”
PERFORMER “Heart”
INDEX 01 14:18:05
TRACK 05 AUDIO
TITLE “Magazine”
PERFORMER “Heart”
INDEX 00 19:01:02
INDEX 01 19:01:05
TRACK 06 AUDIO
TITLE “Here Song”
PERFORMER “Heart”
INDEX 01 25:23:12
TRACK 07 AUDIO
TITLE “Mother Earth Blues”
PERFORMER “Heart”
INDEX 01 26:57:47
TRACK 08 AUDIO
TITLE “I’ve Got The Music In Me”
PERFORMER “Heart”
INDEX 01 32:57:05


Leave a Reply

Your email address will not be published. Required fields are marked *

This site uses Akismet to reduce spam. Learn how your comment data is processed.