Heart – Love Alive




Artist: Heart
Year: 2005
Genre: Rock
Notes: Discogs
Add. Notes:
Cover incl.: Yes
Encoder: FLAC
Bitrate: ~900 kBit/s (44.1 kHz/16 Bit/s)
Log & Cue incl.: Yes
Size: 285 MB
Password: “slam” (without ” “)


All Downloads/Hosters are compatible

Download 1
KatFile.com
Turbobit.net
Rapidgator.net
Turbobit.net
Download 2
KatFile.com
Turbobit.net
Rapidgator.net
Turbobit.net

Tracklist:

1  - Barracuda  - 4:21
2  - Love Alive  - 4:23
3  - Say Hello  - 3:37
4  - Sweet Darlin'  - 3:17
5  - Bebe Le Strange  - 3:37
6  - Even It Up  - 5:10
7  - Perfect Stranger  - 3:52
8  - Bright Little Girl  - 3:21
9  - City's Burning  - 4:26
10  - Sleep Alone  - 4:13

EAC-Log, CUE-Sheed & NFO:

Click to open spoiler
Exact Audio Copy V1.1 from 23. June 2015

EAC extraction logfile from 31. May 2017, 18:24

Heart / Love Alive

Used drive : ASUS DRW-24B1ST Adapter: 1 ID: 1

Read mode : Secure
Utilize accurate stream : Yes
Defeat audio cache : Yes
Make use of C2 pointers : No

Read offset correction : 6
Overread into Lead-In and Lead-Out : No
Fill up missing offset samples with silence : Yes
Delete leading and trailing silent blocks : No
Null samples used in CRC calculations : Yes
Used interface : Native Win32 interface for Win NT & 2000

Used output format : User Defined Encoder
Selected bitrate : 1024 kBit/s
Quality : High
Add ID3 tag : No
Command line compressor : C:\Program Files (x86)\Exact Audio Copy\Flac\flac.exe
Additional command line options : -V -8 -T “Genre=%genre%” -T “Artist=%artist%” -T “Title=%title%” -T “Album=%albumtitle%” -T “Date=%year%” -T “Tracknumber=%tracknr%” -T “Comment=%comment%” %source%

TOC of the extracted CD

Track | Start | Length | Start sector | End sector
———————————————————
1 | 0:00.00 | 4:21.45 | 0 | 19619
2 | 4:21.45 | 4:23.35 | 19620 | 39379
3 | 8:45.05 | 3:37.47 | 39380 | 55701
4 | 12:22.52 | 3:17.08 | 55702 | 70484
5 | 15:39.60 | 3:37.72 | 70485 | 86831
6 | 19:17.57 | 5:10.55 | 86832 | 110136
7 | 24:28.37 | 3:52.10 | 110137 | 127546
8 | 28:20.47 | 3:21.18 | 127547 | 142639
9 | 31:41.65 | 4:26.35 | 142640 | 162624
10 | 36:08.25 | 4:13.07 | 162625 | 181606

Range status and errors

Selected range

Filename E:\Torrent\# MY\# ?????????? ??????\Heart\2005 – Love Alive\Heart – Love Alive.wav

Peak level 98.8 %
Extraction speed 3.0 X
Range quality 100.0 %
Test CRC 5570AC0F
Copy CRC 5570AC0F
Copy OK

No errors occurred

AccurateRip summary

Track 1 accurately ripped (confidence 8) [031E51C8] (AR v2)
Track 2 accurately ripped (confidence 8) [CA9D0ABD] (AR v2)
Track 3 accurately ripped (confidence 8) [3408C593] (AR v2)
Track 4 accurately ripped (confidence 8) [F61CC45C] (AR v2)
Track 5 accurately ripped (confidence 8) [CA71C2FB] (AR v2)
Track 6 accurately ripped (confidence 8) [03DD7A0A] (AR v2)
Track 7 accurately ripped (confidence 8) [5DD02E44] (AR v2)
Track 8 accurately ripped (confidence 8) [A62D6C37] (AR v2)
Track 9 accurately ripped (confidence 7) [8F710FB2] (AR v2)
Track 10 accurately ripped (confidence 7) [6A8CAA8C] (AR v2)

All tracks accurately ripped

End of status report

—- CUETools DB Plugin V2.1.6

[CTDB TOCID: eT28dSUu7ByhhhDy3Sr4swJbBe4-] found
Submit result: eT28dSUu7ByhhhDy3Sr4swJbBe4- has been confirmed
Track | CTDB Status
1 | (8/8) Accurately ripped
2 | (8/8) Accurately ripped
3 | (8/8) Accurately ripped
4 | (8/8) Accurately ripped
5 | (8/8) Accurately ripped
6 | (8/8) Accurately ripped
7 | (8/8) Accurately ripped
8 | (8/8) Accurately ripped
9 | (8/8) Accurately ripped
10 | (8/8) Accurately ripped

==== Log checksum 7465FF95C94C29AD173844CB3A8050104E3E31EDE7E54977BC1EBC6581EB8BEC ====

REM GENRE Rock
REM DATE 2005
REM DISCID 7509750A
REM COMMENT “ExactAudioCopy v1.1”
PERFORMER “Heart”
TITLE “Love Alive”
FILE “Heart – Love Alive.flac” WAVE
TRACK 01 AUDIO
TITLE “Barracuda”
PERFORMER “Heart”
ISRC USSM17701139
INDEX 01 00:00:00
TRACK 02 AUDIO
TITLE “Love Alive”
PERFORMER “Heart”
ISRC USSM17700356
INDEX 01 04:21:45
TRACK 03 AUDIO
TITLE “Say Hello”
PERFORMER “Heart”
ISRC USSM10404448
INDEX 01 08:45:05
TRACK 04 AUDIO
TITLE “Sweet Darlin”
PERFORMER “Heart”
ISRC USSM19921944
INDEX 01 12:22:52
TRACK 05 AUDIO
TITLE “Bebe Le Strange”
PERFORMER “Heart”
ISRC USSM19921941
INDEX 01 15:39:60
TRACK 06 AUDIO
TITLE “Even It Up”
PERFORMER “Heart”
ISRC USSM18000854
INDEX 01 19:17:57
TRACK 07 AUDIO
TITLE “Perfect Stranger”
PERFORMER “Heart”
ISRC USSM10026925
INDEX 01 24:28:37
TRACK 08 AUDIO
TITLE “Bright Light Girl”
PERFORMER “Heart”
INDEX 01 28:20:47
TRACK 09 AUDIO
TITLE “City’s Burning”
PERFORMER “Heart”
ISRC USSM18200250
INDEX 01 31:41:65
TRACK 10 AUDIO
TITLE “Sleep Alone”
PERFORMER “Heart”
ISRC USSM10022541
INDEX 01 36:08:25


Leave a Reply

Your email address will not be published. Required fields are marked *

This site uses Akismet to reduce spam. Learn how your comment data is processed.