Heart – Live In Atlantic City




No Cover available

Artist: Heart
Year: 2019
Genre: Rock
Notes: Discogs
Add. Notes:
Cover incl.: Yes
Encoder: FLAC
Bitrate: ~1000 kBit/s (44.1 kHz/16 Bit/s)
Log & Cue incl.: Yes/Yes
Size: 534,4 MB
Password: “slam” (without ” “)


All Downloads/Hosters are compatible

Download 1
KatFile.com
Turbobit.net
FileFactory.com
Rapidgator.net
Download 2
KatFile.com
Turbobit.net
FileFactory.com
Rapidgator.net

Tracklist:

1 Bebe Le Strange 4:13
2 Straight On 5:05
3 Crazy On You 3:27
4 Lost Angel 6:51
5 Even It Up 4:24
6 Rock 'N Roll 3:53
7 Dog And Butterfly 5:45
8 Would? 4:23
9 Rooster 6:32
10 Alone 3:56
11 Magic Man 5:20
12 Misty Mountain Hop 4:37
13 Dreamboat Annie 2:59
14 Barracuda 6:14

EAC-Log, CUE-Sheed & NFO:

Click to open spoiler
Exact Audio Copy V1.3 from 2. September 2016

EAC extraction logfile from 7. March 2019, 23:02

Heart / Live In Atlantic City

Used drive : HL-DT-STDVDROM DH18NS61 Adapter: 1 ID: 0

Read mode : Secure
Utilize accurate stream : Yes
Defeat audio cache : Yes
Make use of C2 pointers : No

Read offset correction : 6
Overread into Lead-In and Lead-Out : No
Fill up missing offset samples with silence : Yes
Delete leading and trailing silent blocks : No
Null samples used in CRC calculations : Yes
Used interface : Native Win32 interface for Win NT & 2000

Used output format : User Defined Encoder
Selected bitrate : 1024 kBit/s
Quality : High
Add ID3 tag : No
Command line compressor : G:\Install\All for Music\Lossless\FLAC 1.3.2\flac-1.3.2-win original\flac-1.3.2-win\win64\flac.exe
Additional command line options : -V -8 -T “Genre=%genre%” -T “Artist=%artist%” -T “Title=%title%” -T “Album=%albumtitle%” -T “Date=%year%” -T “Tracknumber=%tracknr%” -T “Comment=%comment%” %source%

TOC of the extracted CD

Track | Start | Length | Start sector | End sector
———————————————————
1 | 0:00.00 | 4:13.59 | 0 | 19033
2 | 4:13.59 | 5:05.04 | 19034 | 41912
3 | 9:18.63 | 3:27.35 | 41913 | 57472
4 | 12:46.23 | 6:51.08 | 57473 | 88305
5 | 19:37.31 | 4:24.03 | 88306 | 108108
6 | 24:01.34 | 3:53.15 | 108109 | 125598
7 | 27:54.49 | 5:45.39 | 125599 | 151512
8 | 33:40.13 | 4:23.61 | 151513 | 171298
9 | 38:03.74 | 6:32.44 | 171299 | 200742
10 | 44:36.43 | 3:56.46 | 200743 | 218488
11 | 48:33.14 | 5:17.30 | 218489 | 242293
12 | 53:50.44 | 4:41.69 | 242294 | 263437
13 | 58:32.38 | 2:58.59 | 263438 | 276846
14 | 61:31.22 | 6:14.08 | 276847 | 304904

Range status and errors

Selected range

Filename E:\Ginger Devil\Heart – Live In Atlantic City (2018)\Heart – Live In Atlantic City.wav

Peak level 100.0 %
Extraction speed 2.1 X
Range quality 100.0 %
Test CRC 46A103B9
Copy CRC 46A103B9
Copy OK

No errors occurred

AccurateRip summary

Track 1 not present in database
Track 2 not present in database
Track 3 not present in database
Track 4 not present in database
Track 5 not present in database
Track 6 not present in database
Track 7 not present in database
Track 8 not present in database
Track 9 not present in database
Track 10 not present in database
Track 11 not present in database
Track 12 not present in database
Track 13 not present in database
Track 14 not present in database

None of the tracks are present in the AccurateRip database

End of status report

—- CUETools DB Plugin V2.1.6

[CTDB TOCID: a0fTmLz4l7JIJ70.ddnS_DqXW54-] found
Submit result: a0fTmLz4l7JIJ70.ddnS_DqXW54- has been confirmed
Track | CTDB Status
1 | (2/2) Accurately ripped
2 | (2/2) Accurately ripped
3 | (2/2) Accurately ripped
4 | (2/2) Accurately ripped
5 | (2/2) Accurately ripped
6 | (2/2) Accurately ripped
7 | (2/2) Accurately ripped
8 | (2/2) Accurately ripped
9 | (2/2) Accurately ripped
10 | (2/2) Accurately ripped
11 | (2/2) Accurately ripped
12 | (2/2) Accurately ripped
13 | (2/2) Accurately ripped
14 | (2/2) Accurately ripped

==== Log checksum 83D9D7AD0D7819AFC2D1E11F6945C70860D4CFCA75E17AC576EEC77C26B3FA8B ====

REM GENRE “Hard Rock”
REM DATE 2018
REM DISCID CB0FE10E
REM COMMENT “ExactAudioCopy v1.3”
CATALOG 4029759128014
PERFORMER “Heart”
TITLE “Live In Atlantic City”
REM COMPOSER “Heart”
FILE “Heart – Live In Atlantic City.flac” WAVE
TRACK 01 AUDIO
TITLE “Bebe Le Strange (with Dave Navarro)”
PERFORMER “Heart”
REM COMPOSER “Heart”
ISRC DEH841800056
INDEX 01 00:00:00
TRACK 02 AUDIO
TITLE “Straight On (with Dave Navarro)”
PERFORMER “Heart”
REM COMPOSER “Heart”
ISRC DEH841800122
INDEX 01 04:13:59
TRACK 03 AUDIO
TITLE “Crazy On You (with Dave Navarro)”
PERFORMER “Heart”
REM COMPOSER “Heart”
ISRC DEH841800061
INDEX 01 09:18:63
TRACK 04 AUDIO
TITLE “Lost Angel”
PERFORMER “Heart”
REM COMPOSER “Heart”
ISRC DEH841800065
INDEX 01 12:46:23
TRACK 05 AUDIO
TITLE “Even It Up (with Gretchen Wilson)”
PERFORMER “Heart”
REM COMPOSER “Heart”
ISRC DEH841800063
INDEX 01 19:37:31
TRACK 06 AUDIO
TITLE “Rock ‘n Roll (with Gretchen Wilson)”
PERFORMER “Heart”
REM COMPOSER “Heart”
ISRC DEH841800066
INDEX 01 24:01:34
TRACK 07 AUDIO
TITLE “Dog And Butterfly (with Rufus Wainwright)”
PERFORMER “Heart”
REM COMPOSER “Heart”
ISRC DEH841800062
INDEX 01 27:54:49
TRACK 08 AUDIO
TITLE “Would? (with Alice In Chains & Duff McKagan)”
PERFORMER “Heart”
REM COMPOSER “Heart”
ISRC DEH841800123
INDEX 01 33:40:13
TRACK 09 AUDIO
TITLE “Rooster (with Alice In Chains & Duff McKagan)”
PERFORMER “Heart”
REM COMPOSER “Heart”
ISRC DEH841800123
INDEX 01 38:03:74
TRACK 10 AUDIO
TITLE “Alone (with Carrie Underwood)”
PERFORMER “Heart”
REM COMPOSER “Heart”
ISRC DEH841800057
INDEX 01 44:36:43
TRACK 11 AUDIO
TITLE “Magic Man”
PERFORMER “Heart”
REM COMPOSER “Heart”
ISRC DEH841800059
INDEX 01 48:33:14
TRACK 12 AUDIO
TITLE “Misty Mountain Hop (with Dave Navarro)”
PERFORMER “Heart”
REM COMPOSER “Heart”
ISRC DEH841800067
INDEX 01 53:50:44
TRACK 13 AUDIO
TITLE “Dreamboat Annie”
PERFORMER “Heart”
REM COMPOSER “Heart”
ISRC DEH841800058
INDEX 01 58:32:38
TRACK 14 AUDIO
TITLE “Barracuda”
PERFORMER “Heart”
REM COMPOSER “Heart”
ISRC DEH841800060
INDEX 01 61:31:22


Leave a Reply

Your email address will not be published. Required fields are marked *

Enter the text from the image below
 

This site uses Akismet to reduce spam. Learn how your comment data is processed.