Heart – Little Queen




Artist: Heart
Year: 1977/2004
Genre: Rock
Notes: Discogs
Add. Notes:
Cover incl.: Yes
Encoder: FLAC
Bitrate: ~900 kBit/s (44.1 kHz/16 Bit/s)
Log & Cue incl.: Yes
Size: 371,5 MB
Password: “slam” (without ” “)


All Downloads/Hosters are compatible

Download 1
KatFile.com
Turbobit.net
Rapidgator.net
Usersdrive.com
Download 2
KatFile.com
Turbobit.net
Rapidgator.net
Usersdrive.com

Tracklist:

1 - Barracuda - 4:22
2 - Love Alive - 4:18
3 - Sylvan Song - 2:14
4 - Dream Of The Archer - 4:31
5 - Kick It Out - 2:44
6 - Little Queen - 5:12
7 - Treat Me Well - 3:24
8 - Say Hello - 3:36
9 - Cry To Me - 2:51
10 - Go On Cry - 5:51
11 - Too Long A Time - 3:30
12 - Stairway To Heaven - 9:20

EAC-Log, CUE-Sheed & NFO:

Click to open spoiler
Exact Audio Copy V1.1 from 23. June 2015

EAC extraction logfile from 10. October 2015, 15:19

Heart / Little Queen

Used drive : Optiarc DVD-ROM DDU1675S Adapter: 1 ID: 0

Read mode : Secure
Utilize accurate stream : Yes
Defeat audio cache : Yes
Make use of C2 pointers : No

Read offset correction : 6
Overread into Lead-In and Lead-Out : No
Fill up missing offset samples with silence : Yes
Delete leading and trailing silent blocks : No
Null samples used in CRC calculations : Yes
Used interface : Native Win32 interface for Win NT & 2000

Used output format : User Defined Encoder
Selected bitrate : 1024 kBit/s
Quality : High
Add ID3 tag : No
Command line compressor : F:\Install\All for Audio\Lossless\Codecs\FLAC.EXE
Additional command line options : -V -8 -T “Date=%year%” -T “Genre=%genre%” %source%

TOC of the extracted CD

Track | Start | Length | Start sector | End sector
———————————————————
1 | 0:00.00 | 4:22.64 | 0 | 19713
2 | 4:22.64 | 4:18.61 | 19714 | 39124
3 | 8:41.50 | 2:14.48 | 39125 | 49222
4 | 10:56.23 | 4:31.28 | 49223 | 69575
5 | 15:27.51 | 2:44.62 | 69576 | 81937
6 | 18:12.38 | 5:12.35 | 81938 | 105372
7 | 23:24.73 | 3:24.05 | 105373 | 120677
8 | 26:49.03 | 3:36.51 | 120678 | 136928
9 | 30:25.54 | 2:51.13 | 136929 | 149766
10 | 33:16.67 | 5:56.09 | 149767 | 176475
11 | 39:13.01 | 3:33.25 | 176476 | 192475
12 | 42:46.26 | 9:20.22 | 192476 | 234497

Range status and errors

Selected range

Filename E:\Torrent\# MY\# Подготовка раздач\Heart – Discography\1977 – Little Queen (Re-issue, Epic, 508342 2, E.U.)\Heart – Little Queen.wav

Peak level 100.0 %
Extraction speed 4.3 X
Range quality 100.0 %
Test CRC AAE37978
Copy CRC AAE37978
Copy OK

No errors occurred

AccurateRip summary

Track 1 accurately ripped (confidence 15) [D5FF6CFE] (AR v2)
Track 2 accurately ripped (confidence 15) [6A2F38CC] (AR v2)
Track 3 accurately ripped (confidence 15) [D2016E1D] (AR v2)
Track 4 accurately ripped (confidence 15) [BE16374B] (AR v2)
Track 5 accurately ripped (confidence 15) [C5EB6781] (AR v2)
Track 6 accurately ripped (confidence 15) [452FF3FE] (AR v2)
Track 7 accurately ripped (confidence 15) [8EC858EE] (AR v2)
Track 8 accurately ripped (confidence 15) [30E36323] (AR v2)
Track 9 accurately ripped (confidence 15) [2C9E37ED] (AR v2)
Track 10 accurately ripped (confidence 15) [573F0269] (AR v2)
Track 11 accurately ripped (confidence 14) [E93BADE5] (AR v2)
Track 12 accurately ripped (confidence 13) [B69AA3E1] (AR v2)

All tracks accurately ripped

End of status report

—- CUETools DB Plugin V2.1.6

[CTDB TOCID: e7pj.KhSPEwKEi.YGPsi2lNftww-] found
Submit result: e7pj.KhSPEwKEi.YGPsi2lNftww- has been confirmed
Track | CTDB Status
1 | ( 96/100) Accurately ripped
2 | (100/100) Accurately ripped
3 | (100/100) Accurately ripped
4 | (100/100) Accurately ripped
5 | (100/100) Accurately ripped
6 | (100/100) Accurately ripped
7 | (100/100) Accurately ripped
8 | (100/100) Accurately ripped
9 | ( 98/100) Accurately ripped
10 | ( 99/100) Accurately ripped
11 | (100/100) Accurately ripped
12 | (100/100) Accurately ripped

==== Log checksum A5C56DD5878F9ADA63B01412A5F634278AFCC319F569EE6E9993061FE1380865 ====

REM GENRE Rock
REM DATE 1977
REM DISCID B20C360C
REM COMMENT “ExactAudioCopy v1.1”
CATALOG 5099750834220
PERFORMER “Heart”
TITLE “Little Queen”
FILE “Heart – Little Queen.flac” WAVE
TRACK 01 AUDIO
TITLE “Barracuda”
PERFORMER “Heart”
ISRC USSM10313973
INDEX 01 00:00:00
TRACK 02 AUDIO
TITLE “Love Alive”
PERFORMER “Heart”
ISRC USSM17700356
INDEX 01 04:22:64
TRACK 03 AUDIO
TITLE “Sylvan Song”
PERFORMER “Heart”
ISRC USSM10404444
INDEX 01 08:41:50
TRACK 04 AUDIO
TITLE “Dream Of The Archer”
PERFORMER “Heart”
ISRC USSM10404445
INDEX 01 10:56:23
TRACK 05 AUDIO
TITLE “Kick It Out”
PERFORMER “Heart”
ISRC USSM17700355
INDEX 01 15:27:51
TRACK 06 AUDIO
TITLE “Little Queen”
PERFORMER “Heart”
ISRC USSM10404446
INDEX 01 18:12:38
TRACK 07 AUDIO
TITLE “Treat Me Well”
PERFORMER “Heart”
ISRC USSM10404447
INDEX 01 23:24:73
TRACK 08 AUDIO
TITLE “Say Hello”
PERFORMER “Heart”
ISRC USSM10404448
INDEX 01 26:49:03
TRACK 09 AUDIO
TITLE “Cry To Me”
PERFORMER “Heart”
ISRC USSM10404449
INDEX 01 30:25:54
TRACK 10 AUDIO
TITLE “Go On Cry”
PERFORMER “Heart”
ISRC USSM10404450
INDEX 01 33:16:67
TRACK 11 AUDIO
TITLE “Too Long A Time (Recorded 1976) (Bonus track)”
PERFORMER “Heart”
ISRC USSM10404451
INDEX 00 39:08:30
INDEX 01 39:13:01
TRACK 12 AUDIO
TITLE “Stairway To Heaven (Live 1976) (Bonus track)”
PERFORMER “Heart”
ISRC USSM10404452
INDEX 00 42:43:73
INDEX 01 42:46:26


Leave a Reply

Your email address will not be published. Required fields are marked *

This site uses Akismet to reduce spam. Learn how your comment data is processed.