Heart – Jupiters Darling




No Cover available

Artist: Heart
Year: 2004
Genre: Rock
Notes: Discogs
Add. Notes:
Watch Songs on: YouTube
Cover incl.: Yes
Encoder: FLAC
Bitrate: ~900 kBit/s (44.1 kHz/16 Bit/s)
Log & Cue incl.: Yes/Yes
Size: 497,1 MB
Password: “slam” (without ” “)


All Downloads/Hosters are compatible

Download 1
KatFile.com
Turbobit.net
Rapidgator.net
FileFactory.com
Download 2
KatFile.com
Turbobit.net
Rapidgator.net
FileFactory.com

Tracklist:

1 Make Me 4:00
2 Oldest Story In The World 3:51
3 Things 2:43
4 Perfect Goodbye 3:38
5 Enough 3:23
6 Move On 5:01
7 I Need The Rain 4:21
8 I Give Up 3:51
9 Vainglorious 3:58
10 No Other Love 4:01
11 Led To One 2:57
12 Down The Nile 4:49
13 I'm Fine 3:00
14 Fallen Ones 3:41
15 Lost Angel 6:54
16 Hello Moonglow 1:54
17 How Deep It Goes 3:07
18 Fallen Ones (Acoustic) 3:48

EAC-Log, CUE-Sheed & NFO:

Click to open spoiler
Exact Audio Copy V1.1 from 23. June 2015

EAC extraction logfile from 1. November 2015, 13:32

Heart / Jupiters Darling

Used drive : Optiarc DVD-ROM DDU1675S Adapter: 1 ID: 0

Read mode : Secure
Utilize accurate stream : Yes
Defeat audio cache : Yes
Make use of C2 pointers : No

Read offset correction : 6
Overread into Lead-In and Lead-Out : No
Fill up missing offset samples with silence : Yes
Delete leading and trailing silent blocks : No
Null samples used in CRC calculations : Yes
Used interface : Native Win32 interface for Win NT & 2000

Used output format : User Defined Encoder
Selected bitrate : 1024 kBit/s
Quality : High
Add ID3 tag : No
Command line compressor : C:\Program Files (x86)\Exact Audio Copy\Flac\flac.exe
Additional command line options : -V -8 -T “Date=%year%” -T “Genre=%genre%” %source%

TOC of the extracted CD

Track | Start | Length | Start sector | End sector
———————————————————
1 | 0:00.00 | 4:00.33 | 0 | 18032
2 | 4:00.33 | 3:51.06 | 18033 | 35363
3 | 7:51.39 | 2:43.20 | 35364 | 47608
4 | 10:34.59 | 3:37.38 | 47609 | 63921
5 | 14:12.22 | 3:23.35 | 63922 | 79181
6 | 17:35.57 | 5:00.44 | 79182 | 101725
7 | 22:36.26 | 4:20.64 | 101726 | 121289
8 | 26:57.15 | 3:50.62 | 121290 | 138601
9 | 30:48.02 | 3:57.44 | 138602 | 156420
10 | 34:45.46 | 4:00.69 | 156421 | 174489
11 | 38:46.40 | 2:57.03 | 174490 | 187767
12 | 41:43.43 | 4:49.12 | 187768 | 209454
13 | 46:32.55 | 2:59.39 | 209455 | 222918
14 | 49:32.19 | 3:41.32 | 222919 | 239525
15 | 53:13.51 | 6:54.00 | 239526 | 270575
16 | 60:07.51 | 1:54.28 | 270576 | 279153
17 | 62:02.04 | 3:07.18 | 279154 | 293196
18 | 65:09.22 | 3:47.68 | 293197 | 310289

Range status and errors

Selected range

Filename E:\Torrent\# MY\# Подготовка раздач\Heart – Discography\2004 – Jupiters Darling (Eagle Records, EAGCD284, Germany)\Heart – Jupiters Darling.wav

Peak level 100.0 %
Extraction speed 4.9 X
Range quality 100.0 %
Test CRC 480FBAC6
Copy CRC 480FBAC6
Copy OK

No errors occurred

AccurateRip summary

Track 1 accurately ripped (confidence 25) [B643A13D] (AR v2)
Track 2 accurately ripped (confidence 25) [A6DB79DC] (AR v2)
Track 3 accurately ripped (confidence 25) [559D33F5] (AR v2)
Track 4 accurately ripped (confidence 25) [53E79FF6] (AR v2)
Track 5 accurately ripped (confidence 25) [CCC4939D] (AR v2)
Track 6 accurately ripped (confidence 25) [70FE5A07] (AR v2)
Track 7 accurately ripped (confidence 25) [44264E8E] (AR v2)
Track 8 accurately ripped (confidence 25) [0566668E] (AR v2)
Track 9 accurately ripped (confidence 25) [F8AB4617] (AR v2)
Track 10 accurately ripped (confidence 25) [3C775F35] (AR v2)
Track 11 accurately ripped (confidence 25) [E1B3AC81] (AR v2)
Track 12 accurately ripped (confidence 25) [BA208340] (AR v2)
Track 13 accurately ripped (confidence 25) [C181FB3E] (AR v2)
Track 14 accurately ripped (confidence 25) [ABC6B0E0] (AR v2)
Track 15 accurately ripped (confidence 25) [22F35056] (AR v2)
Track 16 accurately ripped (confidence 25) [0E7525BD] (AR v2)
Track 17 accurately ripped (confidence 25) [FCEA73FF] (AR v2)
Track 18 accurately ripped (confidence 25) [A2CF9781] (AR v2)

All tracks accurately ripped

End of status report

—- CUETools DB Plugin V2.1.6

[CTDB TOCID: n2Zu422wl1R7ebb0Xs4CRXj6SMs-] found
Submit result: n2Zu422wl1R7ebb0Xs4CRXj6SMs- has been confirmed
Track | CTDB Status
1 | (10/10) Accurately ripped
2 | (10/10) Accurately ripped
3 | (10/10) Accurately ripped
4 | (10/10) Accurately ripped
5 | (10/10) Accurately ripped
6 | (10/10) Accurately ripped
7 | (10/10) Accurately ripped
8 | (10/10) Accurately ripped
9 | (10/10) Accurately ripped
10 | (10/10) Accurately ripped
11 | (10/10) Accurately ripped
12 | (10/10) Accurately ripped
13 | (10/10) Accurately ripped
14 | (10/10) Accurately ripped
15 | (10/10) Accurately ripped
16 | (10/10) Accurately ripped
17 | (10/10) Accurately ripped
18 | (10/10) Accurately ripped

==== Log checksum EE28DC7211B940EC12415B0C6D1DE3FC0A5516D236E77FD17412F1297C817FB2 ====

REM GENRE Rock
REM DATE 2004
REM DISCID 10102912
REM COMMENT “ExactAudioCopy v1.1”
PERFORMER “Heart”
TITLE “Jupiters Darling”
FILE “Heart – Jupiters Darling.flac” WAVE
TRACK 01 AUDIO
TITLE “Make Me”
PERFORMER “Heart”
ISRC GBCBR0400241
INDEX 01 00:00:00
TRACK 02 AUDIO
TITLE “Oldest Story In The World”
PERFORMER “Heart”
ISRC GBCBR0400241
INDEX 01 04:00:33
TRACK 03 AUDIO
TITLE “Things”
PERFORMER “Heart”
ISRC GBCBR0400243
INDEX 01 07:51:39
TRACK 04 AUDIO
TITLE “Perfect Goodbye”
PERFORMER “Heart”
ISRC GBCBR0400244
INDEX 01 10:34:59
TRACK 05 AUDIO
TITLE “Enough”
PERFORMER “Heart”
ISRC GBCBR0400245
INDEX 01 14:12:22
TRACK 06 AUDIO
TITLE “Move On”
PERFORMER “Heart”
ISRC GBCBR0400246
INDEX 01 17:35:57
TRACK 07 AUDIO
TITLE “I Need The Rain”
PERFORMER “Heart”
ISRC GBCBR0400247
INDEX 01 22:36:26
TRACK 08 AUDIO
TITLE “I Give Up”
PERFORMER “Heart”
ISRC GBCBR0400248
INDEX 01 26:57:15
TRACK 09 AUDIO
TITLE “Vainglorious”
PERFORMER “Heart”
ISRC GBCBR0400249
INDEX 01 30:48:02
TRACK 10 AUDIO
TITLE “No Other Love”
PERFORMER “Heart”
ISRC GBCBR0400250
INDEX 01 34:45:46
TRACK 11 AUDIO
TITLE “Led To One”
PERFORMER “Heart”
ISRC GBCBR0400251
INDEX 01 38:46:40
TRACK 12 AUDIO
TITLE “Down The Nile”
PERFORMER “Heart”
ISRC GBCBR0400252
INDEX 01 41:43:43
TRACK 13 AUDIO
TITLE “I’m Fine”
PERFORMER “Heart”
ISRC GBCBR0400253
INDEX 01 46:32:55
TRACK 14 AUDIO
TITLE “Fallen Ones”
PERFORMER “Heart”
ISRC GBCBR0400254
INDEX 01 49:32:19
TRACK 15 AUDIO
TITLE “Lost Angel”
PERFORMER “Heart”
ISRC GBCBR0400255
INDEX 01 53:13:51
TRACK 16 AUDIO
TITLE “Hello Moonglow”
PERFORMER “Heart”
ISRC GBCBR0400256
INDEX 01 60:07:51
TRACK 17 AUDIO
TITLE “How Deep It Goes”
PERFORMER “Heart”
ISRC GBCBR0400256
INDEX 01 62:02:04
TRACK 18 AUDIO
TITLE “Fallen Ones (Acoustic)”
PERFORMER “Heart”
ISRC GBCBR0400257
INDEX 01 65:09:22


0

Publication author

offline 8 hours

Chaos

3
Comments: 4Publics: 3424Registration: 02-02-2019
Spread the Download

Leave a Reply

Your email address will not be published. Required fields are marked *

Enter the text from the image below
 

This site uses Akismet to reduce spam. Learn how your comment data is processed.