Heart – Heart




Artist: Heart
Year: 1985
Genre: Rock
Notes: Discogs
Add. Notes:
Cover incl.: Yes
Encoder: FLAC
Bitrate: ~1000 kBit/s (44.1 kHz/16 Bit/s)
Log & Cue incl.: Yes
Size: 291,91 MB
Password: “slam” (without ” “)


All Downloads/Hosters are compatible

Download 1
Turbobit.net
NitroFlare.com
KatFile.com
Rapidgator.net
Download 2
Turbobit.net
NitroFlare.com
KatFile.com
Rapidgator.net

Tracklist:

1. If Looks Could Kill 	
2. What About Love 	
3. Never 	
4. These Dreams 	
5. The Wolf 	
6. All Eyes 	
7. Nobody Home 	
8. Nothing At All 	
9. What He Dont Know 	
10. Shell Shock

EAC-Log, CUE-Sheed & NFO:

Click to open spoiler
Exact Audio Copy V1.1 from 23. June 2015

EAC extraction logfile from 1. October 2015, 12:54

Heart / Heart

Used drive : Optiarc DVD-ROM DDU1675S Adapter: 1 ID: 0

Read mode : Secure
Utilize accurate stream : Yes
Defeat audio cache : Yes
Make use of C2 pointers : No

Read offset correction : 6
Overread into Lead-In and Lead-Out : No
Fill up missing offset samples with silence : Yes
Delete leading and trailing silent blocks : No
Null samples used in CRC calculations : Yes
Used interface : Native Win32 interface for Win NT & 2000

Used output format : User Defined Encoder
Selected bitrate : 1024 kBit/s
Quality : High
Add ID3 tag : No
Command line compressor : F:\Install\All for Audio\Lossless\Codecs\FLAC.EXE
Additional command line options : -V -8 -T “Date=%year%” -T “Genre=%genre%” %source%

TOC of the extracted CD

Track | Start | Length | Start sector | End sector
———————————————————
1 | 0:00.33 | 3:42.10 | 33 | 16692
2 | 3:42.43 | 3:41.07 | 16693 | 33274
3 | 7:23.50 | 4:06.30 | 33275 | 51754
4 | 11:30.05 | 4:15.00 | 51755 | 70879
5 | 15:45.05 | 4:02.68 | 70880 | 89097
6 | 19:47.73 | 3:55.20 | 89098 | 106742
7 | 23:43.18 | 4:07.42 | 106743 | 125309
8 | 27:50.60 | 4:09.08 | 125310 | 143992
9 | 31:59.68 | 3:40.72 | 143993 | 160564
10 | 35:40.65 | 3:49.38 | 160565 | 177777

Range status and errors

Selected range

Filename E:\Torrent\# MY\# Подготовка раздач\Heart – Discography\1985 – Heart (Capitol, CDP 7 46157 2, E.U.)\Heart – Heart.wav

Peak level 93.9 %
Extraction speed 5.5 X
Range quality 100.0 %
Test CRC 39079CB9
Copy CRC 39079CB9
Copy OK

No errors occurred

AccurateRip summary

Track 1 accurately ripped (confidence 6) [B64AC763] (AR v2)
Track 2 accurately ripped (confidence 6) [AEB6AC4A] (AR v2)
Track 3 accurately ripped (confidence 6) [46A235D7] (AR v2)
Track 4 accurately ripped (confidence 6) [DEC7AD8C] (AR v2)
Track 5 accurately ripped (confidence 6) [A57202EA] (AR v2)
Track 6 accurately ripped (confidence 6) [0D95D46A] (AR v2)
Track 7 accurately ripped (confidence 6) [B3546266] (AR v2)
Track 8 accurately ripped (confidence 6) [545C0CAF] (AR v2)
Track 9 accurately ripped (confidence 6) [28A988CD] (AR v2)
Track 10 accurately ripped (confidence 6) [6A4649F2] (AR v2)

All tracks accurately ripped

End of status report

—- CUETools DB Plugin V2.1.6

[CTDB TOCID: cMzulvoO4N5nPI0SPRnoNcDCi1o-] found
Submit result: cMzulvoO4N5nPI0SPRnoNcDCi1o- has been confirmed
Track | CTDB Status
1 | (64/68) Accurately ripped
2 | (64/68) Accurately ripped
3 | (67/68) Accurately ripped
4 | (67/68) Accurately ripped
5 | (67/68) Accurately ripped
6 | (65/68) Accurately ripped
7 | (66/68) Accurately ripped
8 | (66/68) Accurately ripped
9 | (67/68) Accurately ripped
10 | (67/68) Accurately ripped

==== Log checksum 02FBE0C54807B99BA4CB6CF07228F7EB4DCE5EE4C2A47DB3FB59A4EFDB91EFD1 ====

REM GENRE Rock
REM DATE 1985
REM DISCID 8109420A
REM COMMENT “ExactAudioCopy v1.1”
CATALOG 0077774615723
PERFORMER “Heart”
TITLE “Heart”
FILE “Heart – Heart.flac” WAVE
TRACK 01 AUDIO
TITLE “If Looks Could Kill”
PERFORMER “Heart”
ISRC USCA28500014
INDEX 00 00:00:00
INDEX 01 00:00:33
TRACK 02 AUDIO
TITLE “What About Love”
PERFORMER “Heart”
ISRC USCA28500012
INDEX 00 03:42:40
INDEX 01 03:42:43
TRACK 03 AUDIO
TITLE “Never”
PERFORMER “Heart”
ISRC USCA28500015
INDEX 00 07:23:48
INDEX 01 07:23:50
TRACK 04 AUDIO
TITLE “These Dreams”
PERFORMER “Heart”
ISRC USCA28500010
INDEX 00 11:30:03
INDEX 01 11:30:05
TRACK 05 AUDIO
TITLE “The Wolf”
PERFORMER “Heart”
ISRC USCA28500224
INDEX 00 15:45:03
INDEX 01 15:45:05
TRACK 06 AUDIO
TITLE “All Eyes”
PERFORMER “Heart”
ISRC USCA28500225
INDEX 00 19:47:70
INDEX 01 19:47:73
TRACK 07 AUDIO
TITLE “Nobody Home”
PERFORMER “Heart”
ISRC USCA28500226
INDEX 00 23:43:15
INDEX 01 23:43:18
TRACK 08 AUDIO
TITLE “Nothin’ At All”
PERFORMER “Heart”
ISRC USCA28500013
INDEX 00 27:50:58
INDEX 01 27:50:60
TRACK 09 AUDIO
TITLE “What He Don’t Know”
PERFORMER “Heart”
ISRC USCA28500227
INDEX 00 31:59:65
INDEX 01 31:59:68
TRACK 10 AUDIO
TITLE “Shell Shock”
PERFORMER “Heart”
ISRC USCA28500228
INDEX 00 35:40:63
INDEX 01 35:40:65


Leave a Reply

Your email address will not be published. Required fields are marked *

This site uses Akismet to reduce spam. Learn how your comment data is processed.