Heart – Heart Presents A Lovemonger’s Christmas




[Total: 0    Average: 0/5]

Artist: Heart
Year: 2004
Genre: Rock
Notes: Discogs
Add. Notes:
Cover incl.: Yes
Encoder: FLAC
Bitrate: ~900 kBit/s (44.1 kHz/16 Bit/s)
Log & Cue incl.: Yes
Size: 305,59 MB
Password: “slam” (without ” “)


All Downloads/Hosters are compatible

Download 1
Share-online.biz
KatFile.com
Rapidgator.net
DoUploads.net
Download 2
Share-online.biz
KatFile.com
Rapidgator.net
DoUploads.net

Tracklist:

1  - Here Is Christmas  - 4:12
2  - Christmas Waits  - 3:08
3  - Mary  - 4:50
4  - How Beautiful  - 5:29
5  - William And Rose  - 3:56
6  - Let's Stay In  - 3:27
7  - Balulalow  - 1:19
8  - Ave Maria  - 4:51
9  - The Last Noel  - 4:23
10  - It's Christmas Time  - 3:38
11  - Oh Holy Night  - 3:19
12  - Bring A Torch  - 1:57

EAC-Log, CUE-Sheed & NFO:

Click to open spoiler
Exact Audio Copy V1.1 from 23. June 2015

EAC extraction logfile from 1. November 2015, 11:58

The Lovemongers / Heart Presents A Lovemongers’ Christmas

Used drive : Optiarc DVD-ROM DDU1675S Adapter: 1 ID: 0

Read mode : Secure
Utilize accurate stream : Yes
Defeat audio cache : Yes
Make use of C2 pointers : No

Read offset correction : 6
Overread into Lead-In and Lead-Out : No
Fill up missing offset samples with silence : Yes
Delete leading and trailing silent blocks : No
Null samples used in CRC calculations : Yes
Used interface : Native Win32 interface for Win NT & 2000

Used output format : User Defined Encoder
Selected bitrate : 1024 kBit/s
Quality : High
Add ID3 tag : No
Command line compressor : C:\Program Files (x86)\Exact Audio Copy\Flac\flac.exe
Additional command line options : -V -8 -T “Date=%year%” -T “Genre=%genre%” %source%

TOC of the extracted CD

Track | Start | Length | Start sector | End sector
———————————————————
1 | 0:00.00 | 4:11.57 | 0 | 18881
2 | 4:11.57 | 3:08.27 | 18882 | 33008
3 | 7:20.09 | 4:50.37 | 33009 | 54795
4 | 12:10.46 | 5:29.35 | 54796 | 79505
5 | 17:40.06 | 3:56.11 | 79506 | 97216
6 | 21:36.17 | 3:27.68 | 97217 | 112809
7 | 25:04.10 | 1:19.74 | 112810 | 118808
8 | 26:24.09 | 4:51.44 | 118809 | 140677
9 | 31:15.53 | 4:23.18 | 140678 | 160420
10 | 35:38.71 | 3:39.00 | 160421 | 176845
11 | 39:17.71 | 3:19.04 | 176846 | 191774
12 | 42:37.00 | 1:57.74 | 191775 | 200623

Range status and errors

Selected range

Filename E:\Torrent\# MY\# Подготовка раздач\Heart – Discography\2004 – Heart Presents A Lovemongers’ Christmas (Eagle Records, EAGCD338, Germany)\The Lovemongers – Heart Presents A Lovemongers’ Christmas.wav

Peak level 100.0 %
Extraction speed 5.6 X
Range quality 100.0 %
Test CRC 1EF1011A
Copy CRC 1EF1011A
Copy OK

No errors occurred

AccurateRip summary

Track 1 accurately ripped (confidence 4) [00C665E9] (AR v2)
Track 2 accurately ripped (confidence 4) [9EE11E34] (AR v2)
Track 3 accurately ripped (confidence 4) [3797A79B] (AR v2)
Track 4 accurately ripped (confidence 4) [802BD6DA] (AR v2)
Track 5 accurately ripped (confidence 4) [54EE1BDC] (AR v2)
Track 6 accurately ripped (confidence 4) [735028AD] (AR v2)
Track 7 accurately ripped (confidence 4) [2E261106] (AR v2)
Track 8 accurately ripped (confidence 4) [53469EFD] (AR v2)
Track 9 accurately ripped (confidence 4) [F009A017] (AR v2)
Track 10 accurately ripped (confidence 4) [78CF0E88] (AR v2)
Track 11 accurately ripped (confidence 4) [4CB294E3] (AR v2)
Track 12 accurately ripped (confidence 4) [AF27E0FC] (AR v2)

All tracks accurately ripped

End of status report

—- CUETools DB Plugin V2.1.6

[CTDB TOCID: B.cYGFLpt6v31TdLfLfMSQY40HM-] found
Submit result: B.cYGFLpt6v31TdLfLfMSQY40HM- has been confirmed
Track | CTDB Status
1 | (2/2) Accurately ripped
2 | (2/2) Accurately ripped
3 | (2/2) Accurately ripped
4 | (2/2) Accurately ripped
5 | (2/2) Accurately ripped
6 | (2/2) Accurately ripped
7 | (2/2) Accurately ripped
8 | (2/2) Accurately ripped
9 | (2/2) Accurately ripped
10 | (2/2) Accurately ripped
11 | (2/2) Accurately ripped
12 | (2/2) Accurately ripped

==== Log checksum 9A511624AF21158CC7BF7B64ADD465B8E487D948094962CAA305CE14A906F4EE ====

REM GENRE Rock
REM DATE 2004
REM DISCID A50A720C
REM COMMENT “ExactAudioCopy v1.1”
PERFORMER “The Lovemongers”
TITLE “Heart Presents A Lovemongers’ Christmas”
FILE “The Lovemongers – Heart Presents A Lovemongers’ Christmas.flac” WAVE
TRACK 01 AUDIO
TITLE “Here Is Christmas”
PERFORMER “The Lovemongers”
ISRC US3390419637
INDEX 01 00:00:00
TRACK 02 AUDIO
TITLE “Christmas Waits”
PERFORMER “The Lovemongers”
ISRC US3390419638
INDEX 01 04:11:57
TRACK 03 AUDIO
TITLE “Mary”
PERFORMER “The Lovemongers”
ISRC US3390419639
INDEX 01 07:20:09
TRACK 04 AUDIO
TITLE “How Beautiful”
PERFORMER “The Lovemongers”
ISRC US3390419640
INDEX 01 12:10:46
TRACK 05 AUDIO
TITLE “William And Rose”
PERFORMER “The Lovemongers”
ISRC US3390419641
INDEX 01 17:40:06
TRACK 06 AUDIO
TITLE “Let’s Stay In”
PERFORMER “The Lovemongers”
ISRC US3390419642
INDEX 01 21:36:17
TRACK 07 AUDIO
TITLE “Balulalow”
PERFORMER “The Lovemongers”
ISRC US3390419643
INDEX 01 25:04:10
TRACK 08 AUDIO
TITLE “Ave Maria”
PERFORMER “The Lovemongers”
ISRC US3390419644
INDEX 01 26:24:09
TRACK 09 AUDIO
TITLE “The Last Noel”
PERFORMER “The Lovemongers”
ISRC US3390419645
INDEX 01 31:15:53
TRACK 10 AUDIO
TITLE “It’s Christmas Time”
PERFORMER “The Lovemongers”
ISRC US3390419646
INDEX 01 35:38:71
TRACK 11 AUDIO
TITLE “Oh Holy Night”
PERFORMER “The Lovemongers”
ISRC US3390419647
INDEX 01 39:17:71
TRACK 12 AUDIO
TITLE “Bring A Torch”
PERFORMER “The Lovemongers”
ISRC US3390419648
INDEX 01 42:37:00


Spread the Download

Leave a Reply

Your email address will not be published. Required fields are marked *

Enter the text from the image below
 

This site uses Akismet to reduce spam. Learn how your comment data is processed.