Heart – Greatest Hits




[Total: 0    Average: 0/5]

Artist: Heart
Year: 1998
Genre: Rock
Notes: Discogs
Add. Notes:
Cover incl.: Yes
Encoder: FLAC
Bitrate: ~900 kBit/s (44.1 kHz/16 Bit/s)
Log & Cue incl.: Yes
Size: 556,3 MB
Password: “slam” (without ” “)


All Downloads/Hosters are compatible

Download 1
Share-online.biz
KatFile.com
Rapidgator.net
Download 2
Share-online.biz
KatFile.com
Rapidgator.net

Tracklist:

1 - Strong, Strong Wind - 4:26
2 - Magic Man - 5:28
3 - Crazy On You - 4:51
4 - Dreamboat Annie - 3:49
5 - Barracuda - 4:22
6 - Little Queen - 5:12
7 - Kick It Out - 2:46
8 - Love Alive - 4:25
9 - Heartless - 5:02
10 - Straight On - 5:10
11 - Dog & Butterfly - 5:02
12 - Even It Up - 5:12
13 - Bebe Le Strange - 3:40
14 - Tell It Like It Is - 4:30
15 - This Man Is Mine - 3:06
16 - How Can I Refuse - 3:53
17 - Rock And Roll (Live) - 5:31

EAC-Log, CUE-Sheed & NFO:

Click to open spoiler
Exact Audio Copy V1.1 from 23. June 2015

EAC extraction logfile from 2. September 2016, 21:46

Heart / Greatest Hits

Used drive : ASUS DRW-24B1ST Adapter: 1 ID: 1

Read mode : Secure
Utilize accurate stream : Yes
Defeat audio cache : Yes
Make use of C2 pointers : No

Read offset correction : 6
Overread into Lead-In and Lead-Out : No
Fill up missing offset samples with silence : Yes
Delete leading and trailing silent blocks : No
Null samples used in CRC calculations : Yes
Used interface : Native Win32 interface for Win NT & 2000

Used output format : User Defined Encoder
Selected bitrate : 1024 kBit/s
Quality : High
Add ID3 tag : No
Command line compressor : C:\Program Files (x86)\Exact Audio Copy\Flac\flac.exe
Additional command line options : -V -8 -T “Date=%year%” -T “Genre=%genre%” %source%

TOC of the extracted CD

Track | Start | Length | Start sector | End sector
———————————————————
1 | 0:00.00 | 4:28.00 | 0 | 20099
2 | 4:28.00 | 5:27.55 | 20100 | 44679
3 | 9:55.55 | 4:52.57 | 44680 | 66636
4 | 14:48.37 | 3:49.00 | 66637 | 83811
5 | 18:37.37 | 4:22.05 | 83812 | 103466
6 | 22:59.42 | 5:13.48 | 103467 | 126989
7 | 28:13.15 | 2:46.05 | 126990 | 139444
8 | 30:59.20 | 4:26.55 | 139445 | 159449
9 | 35:26.00 | 5:02.50 | 159450 | 182149
10 | 40:28.50 | 5:09.60 | 182150 | 205384
11 | 45:38.35 | 5:01.37 | 205385 | 227996
12 | 50:39.72 | 5:11.70 | 227997 | 251391
13 | 55:51.67 | 3:40.68 | 251392 | 267959
14 | 59:32.60 | 4:30.12 | 267960 | 288221
15 | 64:02.72 | 3:05.60 | 288222 | 302156
16 | 67:08.57 | 3:53.10 | 302157 | 319641
17 | 71:01.67 | 5:30.35 | 319642 | 344426

Range status and errors

Selected range

Filename E:\Torrent\# MY\# Подготовка раздач\Heart\1998 – Greatest Hits (Sony Music, EK 69015, U.S.A.)\Heart – Greatest Hits.wav

Peak level 100.0 %
Extraction speed 6.5 X
Range quality 99.9 %
Test CRC 8BACD1EA
Copy CRC 8BACD1EA
Copy OK

No errors occurred

AccurateRip summary

Track 1 accurately ripped (confidence 13) [91C61248] (AR v2)
Track 2 accurately ripped (confidence 15) [44FC8104] (AR v2)
Track 3 accurately ripped (confidence 15) [886C38CC] (AR v2)
Track 4 accurately ripped (confidence 14) [01D36C52] (AR v2)
Track 5 accurately ripped (confidence 15) [2F0E4ED6] (AR v2)
Track 6 cannot be verified as accurate (confidence 31) [28FF448C], AccurateRip returned [64999C03] (AR v2)
Track 7 accurately ripped (confidence 14) [9DBEEF8E] (AR v2)
Track 8 accurately ripped (confidence 14) [3583000F] (AR v2)
Track 9 accurately ripped (confidence 14) [B7C0CD8C] (AR v2)
Track 10 accurately ripped (confidence 13) [808734E8] (AR v2)
Track 11 accurately ripped (confidence 14) [94C92250] (AR v2)
Track 12 accurately ripped (confidence 14) [3C4A1C6C] (AR v2)
Track 13 accurately ripped (confidence 14) [29CCCF8A] (AR v2)
Track 14 accurately ripped (confidence 14) [7BCD5E19] (AR v2)
Track 15 accurately ripped (confidence 13) [B1C5ABBE] (AR v2)
Track 16 accurately ripped (confidence 14) [1D52CA39] (AR v2)
Track 17 accurately ripped (confidence 11) [34A00779] (AR v2)

16 трек(и) скопированы точно
1 трек(и) не удалось проверить на точность

Some tracks could not be verified as accurate

End of status report

—- CUETools DB Plugin V2.1.6

[CTDB TOCID: uQxGr9z2VK4KXhZ7TVTvzOAr.0k-] found
Submit result: uQxGr9z2VK4KXhZ7TVTvzOAr.0k- has been submitted
Track | CTDB Status
1 | (166/169) Accurately ripped
2 | (166/169) Accurately ripped
3 | (165/169) Accurately ripped
4 | (166/169) Accurately ripped
5 | (166/169) Accurately ripped
6 | (160/169) Differs in 60 samples @02:36:69-02:36:70
7 | (166/169) Accurately ripped
8 | (166/169) Accurately ripped
9 | (166/169) Accurately ripped
10 | (166/169) Accurately ripped
11 | (166/169) Accurately ripped
12 | (165/169) Accurately ripped
13 | (165/169) Accurately ripped
14 | (165/169) Accurately ripped
15 | (163/169) Accurately ripped
16 | (166/169) Accurately ripped
17 | (165/169) Accurately ripped
If you are sure that your rip contains errors, you can use CUETools to repair it.

==== Log checksum 72C0717B87E91937CF2D698FF8C6FEAFAB616F71685BAF2E9F5A9F7D579AEC8B ====

REM GENRE “Hard Rock”
REM DATE 1998
REM DISCID E411F011
REM COMMENT “ExactAudioCopy v1.1”
PERFORMER “Heart”
TITLE “Greatest Hits”
FILE “Heart – Greatest Hits.flac” WAVE
TRACK 01 AUDIO
TITLE “Strong, Strong Wind”
PERFORMER “Heart”
ISRC USSM19800503
INDEX 01 00:00:00
TRACK 02 AUDIO
TITLE “Magic Man”
PERFORMER “Heart”
ISRC USSM17600350
INDEX 00 04:26:35
INDEX 01 04:28:00
TRACK 03 AUDIO
TITLE “Crazy On You”
PERFORMER “Heart”
ISRC USSM17600350
INDEX 01 09:55:55
TRACK 04 AUDIO
TITLE “Dreamboat Annie”
PERFORMER “Heart”
ISRC USSM17600351
INDEX 00 14:47:05
INDEX 01 14:48:37
TRACK 05 AUDIO
TITLE “Barracuda”
PERFORMER “Heart”
ISRC USSM17700354
INDEX 01 18:37:37
TRACK 06 AUDIO
TITLE “Little Queen”
PERFORMER “Heart”
ISRC USSM17700353
INDEX 00 22:58:45
INDEX 01 22:59:42
TRACK 07 AUDIO
TITLE “Kick It Out”
PERFORMER “Heart”
ISRC USSM17700355
INDEX 00 28:11:40
INDEX 01 28:13:15
TRACK 08 AUDIO
TITLE “Love Alive”
PERFORMER “Heart”
ISRC USSM17700356
INDEX 00 30:58:10
INDEX 01 30:59:20
TRACK 09 AUDIO
TITLE “Heartless”
PERFORMER “Heart”
ISRC USSM17700357
INDEX 00 35:23:70
INDEX 01 35:26:00
TRACK 10 AUDIO
TITLE “Straight On”
PERFORMER “Heart”
ISRC USSM17800369
INDEX 00 40:27:22
INDEX 01 40:28:50
TRACK 11 AUDIO
TITLE “Dog & Butterfly”
PERFORMER “Heart”
ISRC USSM17800368
INDEX 00 45:37:20
INDEX 01 45:38:35
TRACK 12 AUDIO
TITLE “Even It Up”
PERFORMER “Heart”
ISRC USSM18000258
INDEX 00 50:39:40
INDEX 01 50:39:72
TRACK 13 AUDIO
TITLE “Bebe Le Strange”
PERFORMER “Heart”
ISRC USSM18000259
INDEX 00 55:50:55
INDEX 01 55:51:67
TRACK 14 AUDIO
TITLE “Tell It Like It Is”
PERFORMER “Heart”
ISRC USSM18000256
INDEX 00 59:31:40
INDEX 01 59:32:60
TRACK 15 AUDIO
TITLE “This Man Is Mine”
PERFORMER “Heart”
ISRC USSM18200249
INDEX 00 64:02:22
INDEX 01 64:02:72
TRACK 16 AUDIO
TITLE “How Can I Refuse”
PERFORMER “Heart”
ISRC USSM18300264
INDEX 00 67:08:07
INDEX 01 67:08:57
TRACK 17 AUDIO
TITLE “Rock And Roll (Live)”
PERFORMER “Heart”
ISRC USSM18000260
INDEX 00 71:01:47
INDEX 01 71:01:67


Spread the Download

Leave a Reply

Your email address will not be published. Required fields are marked *

Enter the text from the image below
 

This site uses Akismet to reduce spam. Learn how your comment data is processed.