Heart – Greatest Hits (Remastered Japanese Edition)




[Total: 0    Average: 0/5]

Artist: Heart
Year: 2000/2016
Genre: Rock
Notes: Discogs
Add. Notes: Remastered Japanese Edition
Cover incl.: Yes
Encoder: FLAC
Bitrate: ~1000 kBit/s (44.1 kHz/16 Bit/s)
Log & Cue incl.: Yes
Size: 606 MB
Password: “slam” (without ” “)


All Downloads/Hosters are compatible

Download 1
Share-online.biz
KatFile.com
Rapidgator.net
Mexa.sh
Download 2
Share-online.biz
KatFile.com
Rapidgator.net
Mexa.sh

Tracklist:

1 - What About Love - 3:43
2 - If Looks Could Kill - 3:41
3 - Never - 4:06
4 - These Dreams - 4:14
5 - Nothin' At All - 4:09
6 - Alone - 3:39
7 - Who Will You Run To - 4:05
8 - There's The Girl - 3:55
9 -  Surrender To Me - 4:05
10 - All I Wanna Do Is Make Love To 
You - 5:09
11 - I Didn't Want To Need You - 
4:09
12 - Tall, Dark Handsome Stranger - 
4:03
13 - Stranded - 3:58
14 - You're The Voice (Studio 
Version) - 4:25
15 - Back To Avalon - 3:40
16 - Black On Black II - 3:52
17 - Will You Be There (In The 
Morning) - 4:29
18 - The Road Home - 3:32
19 - Barracuda - 3:47

EAC-Log, CUE-Sheed & NFO:

Click to open spoiler
Exact Audio Copy V1.1 from 23. June 2015

EAC extraction logfile from 1. September 2016, 22:26

Heart / Greatest Hits

Used drive : ASUS DRW-24B1ST Adapter: 1 ID: 1

Read mode : Secure
Utilize accurate stream : Yes
Defeat audio cache : Yes
Make use of C2 pointers : No

Read offset correction : 6
Overread into Lead-In and Lead-Out : No
Fill up missing offset samples with silence : Yes
Delete leading and trailing silent blocks : No
Null samples used in CRC calculations : Yes
Used interface : Native Win32 interface for Win NT & 2000

Used output format : User Defined Encoder
Selected bitrate : 1024 kBit/s
Quality : High
Add ID3 tag : No
Command line compressor : C:\Program Files (x86)\Exact Audio Copy\Flac\flac.exe
Additional command line options : -V -8 -T “Date=%year%” -T “Genre=%genre%” %source%

TOC of the extracted CD

Track | Start | Length | Start sector | End sector
———————————————————
1 | 0:00.00 | 3:42.50 | 0 | 16699
2 | 3:42.50 | 3:41.15 | 16700 | 33289
3 | 7:23.65 | 4:05.50 | 33290 | 51714
4 | 11:29.40 | 4:14.05 | 51715 | 70769
5 | 15:43.45 | 4:09.15 | 70770 | 89459
6 | 19:52.60 | 3:39.22 | 89460 | 105906
7 | 23:32.07 | 4:05.28 | 105907 | 124309
8 | 27:37.35 | 3:55.27 | 124310 | 141961
9 | 31:32.62 | 4:04.53 | 141962 | 160314
10 | 35:37.40 | 5:09.15 | 160315 | 183504
11 | 40:46.55 | 4:08.52 | 183505 | 202156
12 | 44:55.32 | 4:03.40 | 202157 | 220421
13 | 48:58.72 | 3:58.28 | 220422 | 238299
14 | 52:57.25 | 4:25.15 | 238300 | 258189
15 | 57:22.40 | 3:39.65 | 258190 | 274679
16 | 61:02.30 | 3:52.27 | 274680 | 292106
17 | 64:54.57 | 4:28.65 | 292107 | 312271
18 | 69:23.47 | 3:31.73 | 312272 | 328169
19 | 72:55.45 | 4:41.55 | 328170 | 349299

Range status and errors

Selected range

Filename E:\Torrent\# MY\# Подготовка раздач\Heart\2000 – Greatest Hits (2014 SHM-CD Re-issue) (Capitol Records, UICY-76326, Japan)\Heart – Greatest Hits.wav

Peak level 98.8 %
Extraction speed 6.4 X
Range quality 100.0 %
Test CRC AB2AA72C
Copy CRC AB2AA72C
Copy OK

No errors occurred

AccurateRip summary

Track 1 accurately ripped (confidence 2) [1140AABE] (AR v2)
Track 2 accurately ripped (confidence 2) [B4D14C79] (AR v2)
Track 3 accurately ripped (confidence 2) [BD95F448] (AR v2)
Track 4 accurately ripped (confidence 2) [A3C8D47B] (AR v2)
Track 5 accurately ripped (confidence 2) [DADB57E2] (AR v2)
Track 6 accurately ripped (confidence 2) [75A346FE] (AR v2)
Track 7 accurately ripped (confidence 2) [8B840A59] (AR v2)
Track 8 accurately ripped (confidence 2) [8D1D618C] (AR v2)
Track 9 accurately ripped (confidence 2) [67D00D7F] (AR v2)
Track 10 accurately ripped (confidence 2) [90045095] (AR v2)
Track 11 accurately ripped (confidence 2) [E4942A87] (AR v2)
Track 12 accurately ripped (confidence 2) [31B6ACD7] (AR v2)
Track 13 accurately ripped (confidence 2) [7496C044] (AR v2)
Track 14 accurately ripped (confidence 2) [05991AA0] (AR v2)
Track 15 accurately ripped (confidence 2) [9B560CA5] (AR v2)
Track 16 accurately ripped (confidence 2) [DC7A0633] (AR v2)
Track 17 accurately ripped (confidence 2) [E1C60695] (AR v2)
Track 18 accurately ripped (confidence 2) [74B09DEF] (AR v2)
Track 19 accurately ripped (confidence 2) [A47B3DDA] (AR v2)

All tracks accurately ripped

End of status report

—- CUETools DB Plugin V2.1.6

[CTDB TOCID: lYzT8V9UjkGraomTug.DE.x85FM-] found
Submit result: lYzT8V9UjkGraomTug.DE.x85FM- has been confirmed
Track | CTDB Status
1 | (15/15) Accurately ripped
2 | (15/15) Accurately ripped
3 | (15/15) Accurately ripped
4 | (15/15) Accurately ripped
5 | (15/15) Accurately ripped
6 | (15/15) Accurately ripped
7 | (15/15) Accurately ripped
8 | (15/15) Accurately ripped
9 | (15/15) Accurately ripped
10 | (15/15) Accurately ripped
11 | (15/15) Accurately ripped
12 | (15/15) Accurately ripped
13 | (15/15) Accurately ripped
14 | (15/15) Accurately ripped
15 | (15/15) Accurately ripped
16 | (15/15) Accurately ripped
17 | (15/15) Accurately ripped
18 | (15/15) Accurately ripped
19 | (14/15) Accurately ripped

==== Log checksum 49997F07EABB2096DE1E1B9C11E5F56BB01AA91BA86E229833B7DFA00A31C4B5 ====

REM GENRE “Hard Rock”
REM DATE 2000
REM DISCID 3B123113
REM COMMENT “ExactAudioCopy v1.1”
CATALOG 0000000000000
PERFORMER “Heart”
TITLE “Greatest Hits”
FILE “Heart – Greatest Hits.flac” WAVE
TRACK 01 AUDIO
TITLE “What About Love”
PERFORMER “Heart”
ISRC USB320000454
INDEX 01 00:00:00
TRACK 02 AUDIO
TITLE “If Looks Could Kill”
PERFORMER “Heart”
ISRC USB320000455
INDEX 00 03:42:00
INDEX 01 03:42:50
TRACK 03 AUDIO
TITLE “Never”
PERFORMER “Heart”
ISRC USB320000456
INDEX 00 07:23:35
INDEX 01 07:23:65
TRACK 04 AUDIO
TITLE “These Dreams”
PERFORMER “Heart”
ISRC USB320000457
INDEX 00 11:29:00
INDEX 01 11:29:40
TRACK 05 AUDIO
TITLE “Nothin’ At All”
PERFORMER “Heart”
ISRC USB320000458
INDEX 01 15:43:45
TRACK 06 AUDIO
TITLE “Alone”
PERFORMER “Heart”
ISRC USB320000459
INDEX 00 19:52:02
INDEX 01 19:52:60
TRACK 07 AUDIO
TITLE “Who Will You Run To”
PERFORMER “Heart”
ISRC USB320000460
INDEX 00 23:31:35
INDEX 01 23:32:07
TRACK 08 AUDIO
TITLE “There’s The Girl”
PERFORMER “Heart”
ISRC USB320000461
INDEX 00 27:37:20
INDEX 01 27:37:35
TRACK 09 AUDIO
TITLE “Surrender To Me (Ann Wilson and Robin Zander)”
PERFORMER “Heart”
ISRC USB320000462
INDEX 00 31:32:57
INDEX 01 31:32:62
TRACK 10 AUDIO
TITLE “All I Wanna Do Is Make Love To You”
PERFORMER “Heart”
ISRC USB320000463
INDEX 01 35:37:40
TRACK 11 AUDIO
TITLE “I Didn’t Want To Need You”
PERFORMER “Heart”
ISRC USB320000464
INDEX 01 40:46:55
TRACK 12 AUDIO
TITLE “Tall, Dark Handsome Stranger”
PERFORMER “Heart”
ISRC USB320000465
INDEX 00 44:55:12
INDEX 01 44:55:32
TRACK 13 AUDIO
TITLE “Stranded”
PERFORMER “Heart”
ISRC USB320000466
INDEX 00 48:58:17
INDEX 01 48:58:72
TRACK 14 AUDIO
TITLE “You’re The Voice (Studio version)”
PERFORMER “Heart”
ISRC USB320000467
INDEX 00 52:56:35
INDEX 01 52:57:25
TRACK 15 AUDIO
TITLE “Back To Avalon”
PERFORMER “Heart”
ISRC USB320000468
INDEX 00 57:22:10
INDEX 01 57:22:40
TRACK 16 AUDIO
TITLE “Black On Black II”
PERFORMER “Heart”
ISRC USB320000469
INDEX 01 61:02:30
TRACK 17 AUDIO
TITLE “Will You Be There (In The Morning)”
PERFORMER “Heart”
ISRC USB320000470
INDEX 00 64:53:45
INDEX 01 64:54:57
TRACK 18 AUDIO
TITLE “The Road Home”
PERFORMER “Heart”
ISRC USB320000471
INDEX 00 69:23:40
INDEX 01 69:23:47
TRACK 19 AUDIO
TITLE “Barracuda (Live In Japan)”
PERFORMER “Heart”
ISRC USB328700696
INDEX 00 72:54:57
INDEX 01 72:55:45


Spread the Download

Leave a Reply

Your email address will not be published. Required fields are marked *

Enter the text from the image below
 

This site uses Akismet to reduce spam. Learn how your comment data is processed.