Heart – Greatest Hits / Live (Reissue)




Artist: Heart
Year: 1980/1990
Genre: Rock
Notes: Discogs
Add. Notes: Reissue
Cover incl.: Yes
Encoder: FLAC
Bitrate: ~900 kBit/s (44.1 kHz/16 Bit/s)
Log & Cue incl.: Yes
Size: 455,92 MB
Password: “slam” (without ” “)


All Downloads/Hosters are compatible

Download 1
Turbobit.net
NitroFlare.com
KatFile.com
Rapidgator.net
Download 2
Turbobit.net
NitroFlare.com
KatFile.com
Rapidgator.net

Tracklist:

1 - Barracuda - 4:21
2 - Silver Wheels - 1:18
3 - Crazy On You - 4:54
4 - Straight On - 4:52
5 - Dreamboat Annie - 2:06
6 - Even It Up - 5:09
7 - Magic Man - 5:27
8 - Heartless - 5:00
9 - Dog & Butterfly - 5:20
10 - Bebe Le Strange - 4:28
11 - Tell It Like It Is - 4:29
12 - Mistral Wind - 4:16
13 - Sweet Darlin - 4:11
14 - I'm Down/Long Tall Sally - 4:16
15 - Rock And Roll - 5:56

EAC-Log, CUE-Sheed & NFO:

Click to open spoiler
Exact Audio Copy V1.1 from 23. June 2015

EAC extraction logfile from 12. April 2016, 9:32

Heart / Greatest Hits / Live

Used drive : ASUS DRW-24B1ST Adapter: 1 ID: 1

Read mode : Secure
Utilize accurate stream : Yes
Defeat audio cache : Yes
Make use of C2 pointers : No

Read offset correction : 6
Overread into Lead-In and Lead-Out : No
Fill up missing offset samples with silence : Yes
Delete leading and trailing silent blocks : No
Null samples used in CRC calculations : Yes
Used interface : Native Win32 interface for Win NT & 2000

Used output format : User Defined Encoder
Selected bitrate : 1024 kBit/s
Quality : High
Add ID3 tag : No
Command line compressor : C:\Program Files (x86)\Exact Audio Copy\Flac\flac.exe
Additional command line options : -V -8 -T “Date=%year%” -T “Genre=%genre%” %source%

TOC of the extracted CD

Track | Start | Length | Start sector | End sector
———————————————————
1 | 0:00.00 | 4:23.25 | 0 | 19749
2 | 4:23.25 | 1:18.62 | 19750 | 25661
3 | 5:42.12 | 4:54.10 | 25662 | 47721
4 | 10:36.22 | 4:52.45 | 47722 | 69666
5 | 15:28.67 | 2:09.10 | 69667 | 79351
6 | 17:38.02 | 5:09.25 | 79352 | 102551
7 | 22:47.27 | 5:27.38 | 102552 | 127114
8 | 28:14.65 | 5:00.25 | 127115 | 149639
9 | 33:15.15 | 5:23.45 | 149640 | 173909
10 | 38:38.60 | 4:28.22 | 173910 | 194031
11 | 43:07.07 | 4:29.53 | 194032 | 214259
12 | 47:36.60 | 7:16.47 | 214260 | 247006
13 | 54:53.32 | 4:11.45 | 247007 | 265876
14 | 59:05.02 | 4:17.05 | 265877 | 285156
15 | 63:22.07 | 5:56.40 | 285157 | 311896

Range status and errors

Selected range

Filename E:\Torrent\# MY\Heart – Discography\1980 – Greatest Hits – Live (Epic, EGK 36888, U.S.A.)\Heart – Greatest Hits – Live.wav

Peak level 100.0 %
Extraction speed 6.3 X
Range quality 99.9 %
Test CRC A486804E
Copy CRC A486804E
Copy OK

No errors occurred

AccurateRip summary

Track 1 accurately ripped (confidence 10) [BCAA22D4] (AR v2)
Track 2 accurately ripped (confidence 10) [6EB32DFB] (AR v2)
Track 3 accurately ripped (confidence 10) [B7976E7C] (AR v2)
Track 4 accurately ripped (confidence 10) [7EF47261] (AR v2)
Track 5 accurately ripped (confidence 10) [25D98B3C] (AR v2)
Track 6 accurately ripped (confidence 10) [AF7EBC8F] (AR v2)
Track 7 accurately ripped (confidence 10) [C3BFD3EA] (AR v2)
Track 8 accurately ripped (confidence 10) [B90C5E0E] (AR v2)
Track 9 accurately ripped (confidence 10) [0D63D6FA] (AR v2)
Track 10 accurately ripped (confidence 10) [05A9249C] (AR v2)
Track 11 accurately ripped (confidence 10) [71CBF901] (AR v2)
Track 12 accurately ripped (confidence 10) [92F99601] (AR v2)
Track 13 accurately ripped (confidence 10) [BCA8A4E1] (AR v2)
Track 14 accurately ripped (confidence 9) [D46375D5] (AR v2)
Track 15 accurately ripped (confidence 8) [416F05EF] (AR v2)

All tracks accurately ripped

End of status report

—- CUETools DB Plugin V2.1.6

[CTDB TOCID: eXlWEqS9HakxweaE9MB9HUA5s9Q-] found
Submit result: eXlWEqS9HakxweaE9MB9HUA5s9Q- has been confirmed
Track | CTDB Status
1 | (61/62) Accurately ripped
2 | (62/62) Accurately ripped
3 | (61/62) Accurately ripped
4 | (61/62) Accurately ripped
5 | (61/62) Accurately ripped
6 | (61/62) Accurately ripped
7 | (61/62) Accurately ripped
8 | (61/62) Accurately ripped
9 | (61/62) Accurately ripped
10 | (62/62) Accurately ripped
11 | (61/62) Accurately ripped
12 | (60/62) Accurately ripped
13 | (60/62) Accurately ripped
14 | (57/62) Accurately ripped
15 | (53/62) Accurately ripped, or (1/62) differs in 367 samples @05:56:21-05:56:23

==== Log checksum 883F126A2E79A9E97ECEDE79C425EDF507D825020631BBB5F665728187B4C68D ====

REM GENRE “Hard Rock”
REM DATE 1980
REM DISCID EC103E0F
REM COMMENT “ExactAudioCopy v1.1”
PERFORMER “Heart”
TITLE “Greatest Hits / Live”
FILE “Heart – Greatest Hits – Live.flac” WAVE
TRACK 01 AUDIO
TITLE “Barracuda”
PERFORMER “Heart”
INDEX 01 00:00:00
TRACK 02 AUDIO
TITLE “Silver Wheels”
PERFORMER “Heart”
INDEX 00 04:22:50
INDEX 01 04:23:25
TRACK 03 AUDIO
TITLE “Crazy On You”
PERFORMER “Heart”
INDEX 01 05:42:12
TRACK 04 AUDIO
TITLE “Straight On”
PERFORMER “Heart”
INDEX 01 10:36:22
TRACK 05 AUDIO
TITLE “Dreamboat Annie”
PERFORMER “Heart”
INDEX 01 15:28:67
TRACK 06 AUDIO
TITLE “Even It Up”
PERFORMER “Heart”
INDEX 00 17:36:00
INDEX 01 17:38:02
TRACK 07 AUDIO
TITLE “Magic Man”
PERFORMER “Heart”
INDEX 01 22:47:27
TRACK 08 AUDIO
TITLE “Heartless”
PERFORMER “Heart”
INDEX 01 28:14:65
TRACK 09 AUDIO
TITLE “Dog & Butterfly”
PERFORMER “Heart”
INDEX 01 33:15:15
TRACK 10 AUDIO
TITLE “Bebe Le Strange (Live)”
PERFORMER “Heart”
INDEX 00 38:36:20
INDEX 01 38:38:60
TRACK 11 AUDIO
TITLE “Tell It Like It Is”
PERFORMER “Heart”
INDEX 01 43:07:07
TRACK 12 AUDIO
TITLE “Mistral Wind (Live)”
PERFORMER “Heart”
INDEX 01 47:36:60
TRACK 13 AUDIO
TITLE “Sweet Darlin (Live)”
PERFORMER “Heart”
INDEX 00 54:51:70
INDEX 01 54:53:32
TRACK 14 AUDIO
TITLE “I’m Down / Long Tall Sally (Live)”
PERFORMER “Heart”
INDEX 01 59:05:02
TRACK 15 AUDIO
TITLE “Rock And Roll (Live)”
PERFORMER “Heart”
INDEX 00 63:21:32
INDEX 01 63:22:07


Leave a Reply

Your email address will not be published. Required fields are marked *

This site uses Akismet to reduce spam. Learn how your comment data is processed.