Heart & Friends – Home For The Holidays (Japanese Edition)




Artist: Heart & Friends
Year: 2014
Genre: Rock
Notes: Discogs
Add. Notes: Japanese Edition
Cover incl.: Yes
Encoder: FLAC
Bitrate: ~900 kBit/s (44.1 kHz/16 Bit/s)
Log & Cue incl.: Yes/Yes
Size: 455 MB
Password: “slam” (without ” “)


All Downloads/Hosters are compatible

Download 1
KatFile.com
Turbobit.net
FileFactory.com
Rapidgator.net
Download 2
KatFile.com
Turbobit.net
FileFactory.com
Rapidgator.net

Tracklist:

1 The River 
2 Seasons 
3 Rockin' 
4 Love Came Down At Christmas 
5 POEM 
6 All Through The Night 
7 All We Need Is An Island 
8 Santa's Going South 
9 Please Come Home For Christmas 
10 Remember Christmas 
11 Barracuda 
12 Even It Up 
13 Stairway To Heaven 
14 Ring Them Bells 
Japanese Bonus Track
15 Even It Up (Alternate Mix)

EAC-Log, CUE-Sheed & NFO:

Click to open spoiler
Exact Audio Copy V1.1 from 23. June 2015

EAC extraction logfile from 27. April 2016, 20:32

Heart & Friends / Home For The Holidays

Used drive : ASUS DRW-24B1ST Adapter: 1 ID: 1

Read mode : Secure
Utilize accurate stream : Yes
Defeat audio cache : Yes
Make use of C2 pointers : No

Read offset correction : 6
Overread into Lead-In and Lead-Out : No
Fill up missing offset samples with silence : Yes
Delete leading and trailing silent blocks : No
Null samples used in CRC calculations : Yes
Used interface : Native Win32 interface for Win NT & 2000

Used output format : User Defined Encoder
Selected bitrate : 1024 kBit/s
Quality : High
Add ID3 tag : No
Command line compressor : C:\Program Files (x86)\Exact Audio Copy\Flac\flac.exe
Additional command line options : -V -8 -T “Date=%year%” -T “Genre=%genre%” %source%

TOC of the extracted CD

Track | Start | Length | Start sector | End sector
———————————————————
1 | 0:00.00 | 4:33.20 | 0 | 20494
2 | 4:33.20 | 3:52.40 | 20495 | 37934
3 | 8:25.60 | 2:07.20 | 37935 | 47479
4 | 10:33.05 | 3:27.47 | 47480 | 63051
5 | 14:00.52 | 1:45.08 | 63052 | 70934
6 | 15:45.60 | 3:52.63 | 70935 | 88397
7 | 19:38.48 | 3:02.44 | 88398 | 102091
8 | 22:41.17 | 4:14.56 | 102092 | 121197
9 | 26:55.73 | 3:22.60 | 121198 | 136407
10 | 30:18.58 | 4:16.08 | 136408 | 155615
11 | 34:34.66 | 5:12.03 | 155616 | 179018
12 | 39:46.69 | 5:22.68 | 179019 | 203236
13 | 45:09.62 | 9:54.00 | 203237 | 247786
14 | 55:03.62 | 4:08.71 | 247787 | 266457
15 | 59:12.58 | 3:39.11 | 266458 | 282893

Range status and errors

Selected range

Filename E:\Torrent\# MY\Heart – Discography\2014 – Heart & Friends – Home For The Holidays (Ward Records, Japan)\Heart & Friends – Home For The Holidays.wav

Peak level 100.0 %
Extraction speed 6.0 X
Range quality 100.0 %
Test CRC C655DC7C
Copy CRC C655DC7C
Copy OK

No errors occurred

AccurateRip summary

Track 1 not present in database
Track 2 not present in database
Track 3 not present in database
Track 4 not present in database
Track 5 not present in database
Track 6 not present in database
Track 7 not present in database
Track 8 not present in database
Track 9 not present in database
Track 10 not present in database
Track 11 not present in database
Track 12 not present in database
Track 13 not present in database
Track 14 not present in database
Track 15 not present in database

None of the tracks are present in the AccurateRip database

End of status report

—- CUETools DB Plugin V2.1.6

[CTDB TOCID: RDaHUkjWczR1rwyulYSfJN.Rjok-] found
Submit result: RDaHUkjWczR1rwyulYSfJN.Rjok- has been confirmed
Track | CTDB Status
1 | (2/2) Accurately ripped
2 | (2/2) Accurately ripped
3 | (2/2) Accurately ripped
4 | (2/2) Accurately ripped
5 | (2/2) Accurately ripped
6 | (2/2) Accurately ripped
7 | (2/2) Accurately ripped
8 | (2/2) Accurately ripped
9 | (2/2) Accurately ripped
10 | (2/2) Accurately ripped
11 | (2/2) Accurately ripped
12 | (2/2) Accurately ripped
13 | (2/2) Accurately ripped
14 | (2/2) Accurately ripped
15 | (2/2) Accurately ripped

==== Log checksum 9B3E579C6015353CD00EC578A5507823CAF12EBB6C8F828A51A16B0A9D5B9453 ====

REM GENRE Rock
REM DATE 2014
REM DISCID C80EBB0F
REM COMMENT “ExactAudioCopy v1.1”
PERFORMER “Heart & Friends”
TITLE “Home For The Holidays”
FILE “Heart & Friends – Home For The Holidays.flac” WAVE
TRACK 01 AUDIO
TITLE “The River”
PERFORMER “Heart & Friends”
INDEX 01 00:00:00
TRACK 02 AUDIO
TITLE “Seasons”
PERFORMER “Heart & Friends”
INDEX 01 04:33:20
TRACK 03 AUDIO
TITLE “Rockin’ (featuring Shawn Colvin)”
PERFORMER “Heart & Friends”
INDEX 01 08:25:60
TRACK 04 AUDIO
TITLE “Love Came Down At Christmas”
PERFORMER “Heart & Friends”
INDEX 01 10:33:05
TRACK 05 AUDIO
TITLE “POEM”
PERFORMER “Heart & Friends”
INDEX 01 14:00:52
TRACK 06 AUDIO
TITLE “All Through The Night (featuring Richard Marx)”
PERFORMER “Heart & Friends”
INDEX 01 15:45:60
TRACK 07 AUDIO
TITLE “All We Need Is An Island (featuring Sammy Hagar)”
PERFORMER “Heart & Friends”
INDEX 01 19:38:48
TRACK 08 AUDIO
TITLE “Santa’s Going South (featuring Sammy Hagar)”
PERFORMER “Heart & Friends”
INDEX 01 22:41:17
TRACK 09 AUDIO
TITLE “Please Come Home For Christmas (featuring Pat Monahan)”
PERFORMER “Heart & Friends”
INDEX 01 26:55:73
TRACK 10 AUDIO
TITLE “Remember Christmas”
PERFORMER “Heart & Friends”
INDEX 01 30:18:58
TRACK 11 AUDIO
TITLE “Barracuda”
PERFORMER “Heart & Friends”
INDEX 01 34:34:66
TRACK 12 AUDIO
TITLE “Even It Up”
PERFORMER “Heart & Friends”
INDEX 01 39:46:69
TRACK 13 AUDIO
TITLE “Stairway To Heaven”
PERFORMER “Heart & Friends”
INDEX 01 45:09:62
TRACK 14 AUDIO
TITLE “Ring Them Bells (featuring Pat Monahan with Richard Marx with Shawn Colvin)”
PERFORMER “Heart & Friends”
INDEX 01 55:03:62
TRACK 15 AUDIO
TITLE “Even It Up (Alternate mix) (Bonus track)”
PERFORMER “Heart & Friends”
INDEX 01 59:12:58


Leave a Reply

Your email address will not be published. Required fields are marked *

This site uses Akismet to reduce spam. Learn how your comment data is processed.