Heart – Fanatic




[Total: 0    Average: 0/5]

Artist: Heart
Year: 2012
Genre: Rock
Notes: Discogs
Add. Notes:
Cover incl.: Yes
Encoder: FLAC
Bitrate: ~900 kBit/s (44.1 kHz/16 Bit/s)
Log & Cue incl.: Yes
Size: 291 MB
Password: “slam” (without ” “)


All Downloads/Hosters are compatible

Download 1
KatFile.com
Turbobit.net
FileFactory.com
Rapidgator.net
Download 2
KatFile.com
Turbobit.net
FileFactory.com
Rapidgator.net

Tracklist:

1. Fanatic
2. Dear Old America
3. Walkin' Good (w/ Sarah 
McLachlan)
4. Skin And Bones
5. A Million Miles
6. Pennsylvania
7. Mashallah!
8. Rock Deep (Vancouver)
9. 59 Crunch
10. Corduroy Road

EAC-Log, CUE-Sheed & NFO:

Click to open spoiler
Exact Audio Copy V1.1 from 23. June 2015

EAC extraction logfile from 1. November 2015, 12:38

Heart / Fanatic

Used drive : Optiarc DVD-ROM DDU1675S Adapter: 1 ID: 0

Read mode : Secure
Utilize accurate stream : Yes
Defeat audio cache : Yes
Make use of C2 pointers : No

Read offset correction : 6
Overread into Lead-In and Lead-Out : No
Fill up missing offset samples with silence : Yes
Delete leading and trailing silent blocks : No
Null samples used in CRC calculations : Yes
Used interface : Native Win32 interface for Win NT & 2000

Used output format : User Defined Encoder
Selected bitrate : 1024 kBit/s
Quality : High
Add ID3 tag : No
Command line compressor : C:\Program Files (x86)\Exact Audio Copy\Flac\flac.exe
Additional command line options : -V -8 -T “Date=%year%” -T “Genre=%genre%” %source%

TOC of the extracted CD

Track | Start | Length | Start sector | End sector
———————————————————
1 | 0:00.00 | 3:44.01 | 0 | 16800
2 | 3:44.01 | 4:01.65 | 16801 | 34940
3 | 7:45.66 | 3:45.74 | 34941 | 51889
4 | 11:31.65 | 3:41.63 | 51890 | 68527
5 | 15:13.53 | 5:05.02 | 68528 | 91404
6 | 20:18.55 | 3:10.27 | 91405 | 105681
7 | 23:29.07 | 4:07.59 | 105682 | 124265
8 | 27:36.66 | 4:20.07 | 124266 | 143772
9 | 31:56.73 | 3:21.35 | 143773 | 158882
10 | 35:18.33 | 4:23.39 | 158883 | 178646

Range status and errors

Selected range

Filename E:\Torrent\# MY\# Подготовка раздач\Heart – Discography\2012 – Fanatic (Sony Music, 88725440992, E.U.)\Heart – Fanatic.wav

Peak level 97.8 %
Extraction speed 5.4 X
Range quality 100.0 %
Test CRC B7565231
Copy CRC B7565231
Copy OK

No errors occurred

AccurateRip summary

Track 1 accurately ripped (confidence 13) [F4311787] (AR v2)
Track 2 accurately ripped (confidence 13) [3CD1D228] (AR v2)
Track 3 accurately ripped (confidence 13) [C43CA6F3] (AR v2)
Track 4 accurately ripped (confidence 13) [4256C4C2] (AR v2)
Track 5 accurately ripped (confidence 13) [2BEBD104] (AR v2)
Track 6 accurately ripped (confidence 13) [B4BD7447] (AR v2)
Track 7 accurately ripped (confidence 13) [01C7AA31] (AR v2)
Track 8 accurately ripped (confidence 13) [B4239B1B] (AR v2)
Track 9 accurately ripped (confidence 13) [A3B5F0E6] (AR v2)
Track 10 accurately ripped (confidence 13) [F8ED344C] (AR v2)

All tracks accurately ripped

End of status report

—- CUETools DB Plugin V2.1.6

[CTDB TOCID: RCFSkh_5U1yQnDy21Tqmj1CRozs-] found
Submit result: RCFSkh_5U1yQnDy21Tqmj1CRozs- has been confirmed
Track | CTDB Status
1 | (55/56) Accurately ripped
2 | (55/56) Accurately ripped
3 | (54/56) Accurately ripped
4 | (54/56) Accurately ripped
5 | (54/56) Accurately ripped
6 | (55/56) Accurately ripped
7 | (55/56) Accurately ripped
8 | (55/56) Accurately ripped
9 | (55/56) Accurately ripped
10 | (54/56) Accurately ripped, or (1/56) differs in 1292 samples @04:23:19-04:23:22

==== Log checksum 212B09495DD3B993A396055161C91190CE270225AE83CD06C75A65409D35799D ====

REM GENRE Rock
REM DATE 2012
REM DISCID 76094D0A
REM COMMENT “ExactAudioCopy v1.1”
PERFORMER “Heart”
TITLE “Fanatic”
FILE “Heart – Fanatic.flac” WAVE
TRACK 01 AUDIO
TITLE “Fanatic”
PERFORMER “Heart”
ISRC USQX91200950
INDEX 01 00:00:00
TRACK 02 AUDIO
TITLE “Dear Old America”
PERFORMER “Heart”
ISRC USQX91200951
INDEX 00 03:42:15
INDEX 01 03:44:01
TRACK 03 AUDIO
TITLE “Walkin’ Good (with Sarah McLachlan)”
PERFORMER “Heart”
ISRC USQX91200952
INDEX 00 07:43:73
INDEX 01 07:45:66
TRACK 04 AUDIO
TITLE “Skin And Bones”
PERFORMER “Heart”
ISRC USQX91200958
INDEX 00 11:30:18
INDEX 01 11:31:65
TRACK 05 AUDIO
TITLE “A Million Miles”
PERFORMER “Heart”
ISRC USQX91200955
INDEX 01 15:13:53
TRACK 06 AUDIO
TITLE “Pennsylvania”
PERFORMER “Heart”
ISRC USQX91200954
INDEX 00 20:16:21
INDEX 01 20:18:55
TRACK 07 AUDIO
TITLE “Mashallah!”
PERFORMER “Heart”
ISRC USQX91200953
INDEX 00 23:27:54
INDEX 01 23:29:07
TRACK 08 AUDIO
TITLE “Rock Deep (Vancouver)”
PERFORMER “Heart”
ISRC USQX91200956
INDEX 01 27:36:66
TRACK 09 AUDIO
TITLE “59 Crunch”
PERFORMER “Heart”
ISRC USQX91200957
INDEX 00 31:56:16
INDEX 01 31:56:73
TRACK 10 AUDIO
TITLE “Corduroy Road”
PERFORMER “Heart”
ISRC USQX91200959
INDEX 00 35:17:14
INDEX 01 35:18:33


Spread the Download

Leave a Reply

Your email address will not be published. Required fields are marked *

Enter the text from the image below
 

This site uses Akismet to reduce spam. Learn how your comment data is processed.