Heart – Fanatic Live From Caesars Colosseum (Deluxe Edition)




[Total: 0    Average: 0/5]

Artist: Heart
Year: 2014
Genre: Rock
Notes: Discogs
Add. Notes: Deluxe Edition
Cover incl.: Yes
Encoder: FLAC
Bitrate: ~1000 kBit/s (44.1 kHz/16 Bit/s)
Log & Cue incl.: Yes
Size: 519 MB
Password: “slam” (without ” “)


All Downloads/Hosters are compatible

Download 1
KatFile.com
Turbobit.net
FileFactory.com
Rapidgator.net
Download 2
KatFile.com
Turbobit.net
FileFactory.com
Rapidgator.net
Download 3
KatFile.com
Turbobit.net
FileFactory.com
Rapidgator.net

Tracklist:

1 Fanatic 5:16
2 Heartless 5:19
3 What About Love 4:32
4 Mashallah! 4:20
5 Even It Up 4:32
6 59 Crunch 3:18
7 Straight On 5:57
8 Dog And Butterfly 5:28
9 Walking Good 4:23
10 These Dreams 4:46
11 Alone 4:22
12 Dear Old America 4:11
13 Crazy On You 5:22
14 Barracuda 5:46

EAC-Log, CUE-Sheed & NFO:

Click to open spoiler
Exact Audio Copy V1.1 from 23. June 2015

EAC extraction logfile from 23. April 2016, 13:26

Heart / Fanatic Live From Caesars Colosseum

Used drive : ASUS DRW-24B1ST Adapter: 1 ID: 1

Read mode : Secure
Utilize accurate stream : Yes
Defeat audio cache : Yes
Make use of C2 pointers : No

Read offset correction : 6
Overread into Lead-In and Lead-Out : No
Fill up missing offset samples with silence : Yes
Delete leading and trailing silent blocks : No
Null samples used in CRC calculations : Yes
Used interface : Native Win32 interface for Win NT & 2000

Used output format : User Defined Encoder
Selected bitrate : 1024 kBit/s
Quality : High
Add ID3 tag : No
Command line compressor : C:\Program Files (x86)\Exact Audio Copy\Flac\flac.exe
Additional command line options : -V -8 -T “Date=%year%” -T “Genre=%genre%” %source%

TOC of the extracted CD

Track | Start | Length | Start sector | End sector
———————————————————
1 | 0:00.00 | 5:16.60 | 0 | 23759
2 | 5:16.60 | 5:19.30 | 23760 | 47714
3 | 10:36.15 | 4:32.08 | 47715 | 68122
4 | 15:08.23 | 4:20.50 | 68123 | 87672
5 | 19:28.73 | 4:32.30 | 87673 | 108102
6 | 24:01.28 | 3:18.00 | 108103 | 122952
7 | 27:19.28 | 5:57.60 | 122953 | 149787
8 | 33:17.13 | 5:28.08 | 149788 | 174395
9 | 38:45.21 | 4:23.18 | 174396 | 194138
10 | 43:08.39 | 4:46.72 | 194139 | 215660
11 | 47:55.36 | 4:22.13 | 215661 | 235323
12 | 52:17.49 | 4:11.36 | 235324 | 254184
13 | 56:29.10 | 5:22.33 | 254185 | 278367
14 | 61:51.43 | 5:46.70 | 278368 | 304387

Range status and errors

Selected range

Filename E:\Torrent\# MY\Heart – Discography\2014 – Fanatic Live From Caesars Colosseum (Frontiers Records, FR CDVD 635, Italy)\Heart – Fanatic Live From Caesars Colosseum.wav

Peak level 93.9 %
Extraction speed 3.2 X
Range quality 100.0 %
Test CRC 0AD5D276
Copy CRC 0AD5D276
Copy OK

No errors occurred

AccurateRip summary

Track 1 accurately ripped (confidence 16) [7BD87856] (AR v2)
Track 2 accurately ripped (confidence 16) [166A6046] (AR v2)
Track 3 accurately ripped (confidence 16) [98159845] (AR v2)
Track 4 accurately ripped (confidence 16) [0194D6C6] (AR v2)
Track 5 accurately ripped (confidence 16) [2A5AF84C] (AR v2)
Track 6 accurately ripped (confidence 16) [D72A151A] (AR v2)
Track 7 accurately ripped (confidence 16) [826CF5E2] (AR v2)
Track 8 accurately ripped (confidence 16) [246C3A12] (AR v2)
Track 9 accurately ripped (confidence 16) [9AE157E7] (AR v2)
Track 10 accurately ripped (confidence 16) [622629D4] (AR v2)
Track 11 accurately ripped (confidence 16) [2A5D3F4C] (AR v2)
Track 12 accurately ripped (confidence 17) [F9D5E4A4] (AR v2)
Track 13 accurately ripped (confidence 17) [85D50547] (AR v2)
Track 14 accurately ripped (confidence 16) [01452290] (AR v2)

All tracks accurately ripped

End of status report

—- CUETools DB Plugin V2.1.6

[CTDB TOCID: So0RK6kDQREXjm8M1FsHMbDsqT8-] found
Submit result: So0RK6kDQREXjm8M1FsHMbDsqT8- has been confirmed
Track | CTDB Status
1 | (9/9) Accurately ripped
2 | (9/9) Accurately ripped
3 | (9/9) Accurately ripped
4 | (9/9) Accurately ripped
5 | (9/9) Accurately ripped
6 | (9/9) Accurately ripped
7 | (9/9) Accurately ripped
8 | (9/9) Accurately ripped
9 | (9/9) Accurately ripped
10 | (9/9) Accurately ripped
11 | (9/9) Accurately ripped
12 | (9/9) Accurately ripped
13 | (9/9) Accurately ripped
14 | (9/9) Accurately ripped

==== Log checksum 9D0D0F6079DA3025D3FAC33D7C5873427023F92DFED6AB5B56CDCBF1DEC4D65A ====

REM GENRE “Hard Rock”
REM DATE 2014
REM DISCID CA0FDA0E
REM COMMENT “ExactAudioCopy v1.1”
PERFORMER “Heart”
TITLE “Fanatic Live From Caesars Colosseum”
FILE “Heart – Fanatic Live From Caesars Colosseum.flac” WAVE
TRACK 01 AUDIO
TITLE “Fanatic”
PERFORMER “Heart”
INDEX 01 00:00:00
TRACK 02 AUDIO
TITLE “Heartless”
PERFORMER “Heart”
INDEX 01 05:16:60
TRACK 03 AUDIO
TITLE “What About Love”
PERFORMER “Heart”
INDEX 01 10:36:15
TRACK 04 AUDIO
TITLE “Mashallah!”
PERFORMER “Heart”
INDEX 01 15:08:23
TRACK 05 AUDIO
TITLE “Even It Up”
PERFORMER “Heart”
INDEX 01 19:28:73
TRACK 06 AUDIO
TITLE “59 Crunch”
PERFORMER “Heart”
INDEX 01 24:01:28
TRACK 07 AUDIO
TITLE “Straight On”
PERFORMER “Heart”
INDEX 01 27:19:28
TRACK 08 AUDIO
TITLE “Dog And Butterfly”
PERFORMER “Heart”
INDEX 01 33:17:13
TRACK 09 AUDIO
TITLE “Walking Good”
PERFORMER “Heart”
INDEX 01 38:45:21
TRACK 10 AUDIO
TITLE “These Dreams”
PERFORMER “Heart”
INDEX 01 43:08:39
TRACK 11 AUDIO
TITLE “Alone”
PERFORMER “Heart”
INDEX 01 47:55:36
TRACK 12 AUDIO
TITLE “Dear Old America”
PERFORMER “Heart”
INDEX 01 52:17:49
TRACK 13 AUDIO
TITLE “Crazy On You”
PERFORMER “Heart”
INDEX 01 56:29:10
TRACK 14 AUDIO
TITLE “Barracuda”
PERFORMER “Heart”
INDEX 01 61:51:43


Spread the Download

Leave a Reply

Your email address will not be published. Required fields are marked *

Enter the text from the image below
 

This site uses Akismet to reduce spam. Learn how your comment data is processed.