Heart – Fanatic (Japanese Edition)




[Total: 0    Average: 0/5]

Artist: Heart
Year: 2012
Genre: Rock
Notes: Discogs
Add. Notes: Japanese Edition
Cover incl.: Yes
Encoder: FLAC
Bitrate: ~900 kBit/s (44.1 kHz/16 Bit/s)
Log & Cue incl.: Yes
Size: 383,08 MB
Password: “slam” (without ” “)


All Downloads/Hosters are compatible

Download 1
Share-online.biz
KatFile.com
Rapidgator.net
Download 2
Share-online.biz
KatFile.com
Rapidgator.net

Tracklist:

1. Fanatic
2. Dear Old America
3. Walkin' Good (W/ Sarah McLachlan)
4. Skin And Bones 
5. Million Miles	
6. Pennsylvania 
7. Mashalla 
8. Rock Deep (Vancouver) 
9. 59 Crunch 
10. Corduroy Road 
Bonus Track
11. Going To California (Live) 
12. Misty Mountain Hop (Live)

EAC-Log, CUE-Sheed & NFO:

Click to open spoiler
Exact Audio Copy V1.1 from 23. June 2015

EAC extraction logfile from 8. September 2016, 20:44

Heart / Fanatic

Used drive : ASUS DRW-24B1ST Adapter: 1 ID: 1

Read mode : Secure
Utilize accurate stream : Yes
Defeat audio cache : Yes
Make use of C2 pointers : No

Read offset correction : 6
Overread into Lead-In and Lead-Out : No
Fill up missing offset samples with silence : Yes
Delete leading and trailing silent blocks : No
Null samples used in CRC calculations : Yes
Used interface : Native Win32 interface for Win NT & 2000

Used output format : User Defined Encoder
Selected bitrate : 1024 kBit/s
Quality : High
Add ID3 tag : No
Command line compressor : C:\Program Files (x86)\Exact Audio Copy\Flac\flac.exe
Additional command line options : -V -8 -T “Date=%year%” -T “Genre=%genre%” %source%

TOC of the extracted CD

Track | Start | Length | Start sector | End sector
———————————————————
1 | 0:00.00 | 3:44.14 | 0 | 16813
2 | 3:44.14 | 4:01.61 | 16814 | 34949
3 | 7:46.00 | 3:45.73 | 34950 | 51897
4 | 11:31.73 | 3:42.07 | 51898 | 68554
5 | 15:14.05 | 5:04.58 | 68555 | 91412
6 | 20:18.63 | 3:10.28 | 91413 | 105690
7 | 23:29.16 | 4:08.02 | 105691 | 124292
8 | 27:37.18 | 4:19.63 | 124293 | 143780
9 | 31:57.06 | 3:21.36 | 143781 | 158891
10 | 35:18.42 | 4:24.38 | 158892 | 178729
11 | 39:43.05 | 4:45.22 | 178730 | 200126
12 | 44:28.27 | 5:00.72 | 200127 | 222698

Range status and errors

Selected range

Filename E:\Torrent\# MY\# Подготовка раздач\Heart\2012 – Fanatic (Sony Music Japan, SICP 3597, Japan)\Heart – Fanatic.wav

Peak level 98.1 %
Extraction speed 5.3 X
Range quality 100.0 %
Test CRC 792F064A
Copy CRC 792F064A
Copy OK

No errors occurred

AccurateRip summary

Track 1 accurately ripped (confidence 2) [E06EB139] (AR v2)
Track 2 accurately ripped (confidence 2) [8FAE492A] (AR v2)
Track 3 accurately ripped (confidence 2) [21ABE79E] (AR v2)
Track 4 accurately ripped (confidence 2) [D2D103B0] (AR v2)
Track 5 accurately ripped (confidence 2) [A6709AB6] (AR v2)
Track 6 accurately ripped (confidence 2) [699F9468] (AR v2)
Track 7 accurately ripped (confidence 2) [83154CBB] (AR v2)
Track 8 accurately ripped (confidence 2) [3C04A3F6] (AR v2)
Track 9 accurately ripped (confidence 2) [1B0AFE44] (AR v2)
Track 10 accurately ripped (confidence 2) [1B8580FF] (AR v2)
Track 11 accurately ripped (confidence 2) [080669A9] (AR v2)
Track 12 accurately ripped (confidence 2) [9538ECEC] (AR v2)

All tracks accurately ripped

End of status report

—- CUETools DB Plugin V2.1.6

[CTDB TOCID: DgrhwfHdIu_hsrDnITEwlW72qto-] found
Submit result: DgrhwfHdIu_hsrDnITEwlW72qto- has been confirmed
Track | CTDB Status
1 | (1/1) Accurately ripped
2 | (1/1) Accurately ripped
3 | (1/1) Accurately ripped
4 | (1/1) Accurately ripped
5 | (1/1) Accurately ripped
6 | (1/1) Accurately ripped
7 | (1/1) Accurately ripped
8 | (1/1) Accurately ripped
9 | (1/1) Accurately ripped
10 | (1/1) Accurately ripped
11 | (1/1) Accurately ripped
12 | (1/1) Accurately ripped

==== Log checksum C66F94A157D8B86BCEA203ECC36B18478ECBF7AE74811B4C6BF1624BB4362DF1 ====

REM GENRE “Hard Rock”
REM DATE 2012
REM DISCID 9B0B990C
REM COMMENT “ExactAudioCopy v1.1”
PERFORMER “Heart”
TITLE “Fanatic”
FILE “Heart – Fanatic.flac” WAVE
TRACK 01 AUDIO
TITLE “Fanatic”
PERFORMER “Heart”
ISRC USQX91200950
INDEX 01 00:00:00
TRACK 02 AUDIO
TITLE “Dear Old America”
PERFORMER “Heart”
ISRC USQX91200951
INDEX 00 03:42:44
INDEX 01 03:44:14
TRACK 03 AUDIO
TITLE “Walkin’ Good (feat. Sarah McLachlan)”
PERFORMER “Heart”
ISRC USQX91200952
INDEX 00 07:44:29
INDEX 01 07:46:00
TRACK 04 AUDIO
TITLE “Skin And Bones”
PERFORMER “Heart”
ISRC USQX91200958
INDEX 00 11:30:49
INDEX 01 11:31:73
TRACK 05 AUDIO
TITLE “A Million Miles”
PERFORMER “Heart”
ISRC USQX91200955
INDEX 01 15:14:05
TRACK 06 AUDIO
TITLE “Pennsylvania”
PERFORMER “Heart”
ISRC USQX91200954
INDEX 00 20:16:54
INDEX 01 20:18:63
TRACK 07 AUDIO
TITLE “Mashallah!”
PERFORMER “Heart”
ISRC USQX91200953
INDEX 00 23:28:11
INDEX 01 23:29:16
TRACK 08 AUDIO
TITLE “Rock Deep (Vancouver)”
PERFORMER “Heart”
ISRC USQX91200953
INDEX 01 27:37:18
TRACK 09 AUDIO
TITLE “59 Crunch”
PERFORMER “Heart”
ISRC USQX91200957
INDEX 01 31:57:06
TRACK 10 AUDIO
TITLE “Corduroy Road”
PERFORMER “Heart”
ISRC USQX91200959
INDEX 00 35:17:44
INDEX 01 35:18:42
TRACK 11 AUDIO
TITLE “Going To California (Live) (Bonus track)”
PERFORMER “Heart”
ISRC USQX91200663
INDEX 00 39:41:43
INDEX 01 39:43:05
TRACK 12 AUDIO
TITLE “Misty Mountain Hop (Live) (Bonus track)”
PERFORMER “Heart”
ISRC USR790729527
INDEX 00 44:27:18
INDEX 01 44:28:27


Spread the Download

Leave a Reply

Your email address will not be published. Required fields are marked *

Enter the text from the image below
 

This site uses Akismet to reduce spam. Learn how your comment data is processed.