Heart – Dreamboat Annie




Artist: Heart
Year: 1976/2008
Genre: Rock
Notes: Discogs
Add. Notes:
Cover incl.: Yes
Encoder: FLAC
Bitrate: ~800 kBit/s (44.1 kHz/16 Bit/s)
Log & Cue incl.: Yes
Size: 244,97 MB
Password: “slam” (without ” “)


All Downloads/Hosters are compatible

Download 1
Turbobit.net
Rapidgator.net
KatFile.com
UploadRar.com
UploadRive.com
Download 2
Turbobit.net
Rapidgator.net
KatFile.com
UploadRar.com
UploadRive.com

Tracklist:

1. Magic Man. 5:35
2. Dreamboat Annie (Fantasy Child). 1:55
3. Crazy On You. 3:54
4. Soul Of The Sea. 6:35
5. Dreamboat Annie. 2:02
6. White Lightning & Wine. 3:53
7. Love Me Like Music (I'll Be Your Song). 3:20
8. Sing Child. 4:55
9. How Deep It Goes. 3:49
10. Dreamboat Annie (Reprise). 3:48

EAC-Log, CUE-Sheed & NFO:

Click to open spoiler
Exact Audio Copy V1.1 from 23. June 2015

EAC extraction logfile from 10. October 2015, 17:34

Heart / Dreamboat Annie

Used drive : Optiarc DVD-ROM DDU1675S Adapter: 1 ID: 0

Read mode : Secure
Utilize accurate stream : Yes
Defeat audio cache : Yes
Make use of C2 pointers : No

Read offset correction : 6
Overread into Lead-In and Lead-Out : No
Fill up missing offset samples with silence : Yes
Delete leading and trailing silent blocks : No
Null samples used in CRC calculations : Yes
Used interface : Native Win32 interface for Win NT & 2000

Used output format : User Defined Encoder
Selected bitrate : 1024 kBit/s
Quality : High
Add ID3 tag : No
Command line compressor : F:\Install\All for Audio\Lossless\Codecs\FLAC.EXE
Additional command line options : -V -8 -T “Date=%year%” -T “Genre=%genre%” %source%

TOC of the extracted CD

Track | Start | Length | Start sector | End sector
———————————————————
1 | 0:00.00 | 5:28.27 | 0 | 24626
2 | 5:28.27 | 1:10.05 | 24627 | 29881
3 | 6:38.32 | 4:53.33 | 29882 | 51889
4 | 11:31.65 | 6:33.32 | 51890 | 81396
5 | 18:05.22 | 2:01.53 | 81397 | 90524
6 | 20:07.00 | 3:53.45 | 90525 | 108044
7 | 24:00.45 | 3:20.47 | 108045 | 123091
8 | 27:21.17 | 4:55.25 | 123092 | 145241
9 | 32:16.42 | 3:49.53 | 145242 | 162469
10 | 36:06.20 | 3:50.10 | 162470 | 179729

Range status and errors

Selected range

Filename E:\Torrent\# MY\# Подготовка раздач\Heart – Discography\1976 – Dreamboat Annie (Capitol, 72438-19826-2-4, U.S.A.)\Heart – Dreamboat Annie.wav

Peak level 98.7 %
Extraction speed 4.3 X
Range quality 99.9 %
Test CRC 62FA0399
Copy CRC 62FA0399
Copy OK

No errors occurred

AccurateRip summary

Track 1 accurately ripped (confidence 69) [387B69B0] (AR v2)
Track 2 accurately ripped (confidence 68) [C5D8AFEF] (AR v2)
Track 3 accurately ripped (confidence 68) [08BA87A1] (AR v2)
Track 4 accurately ripped (confidence 68) [AC6E7465] (AR v2)
Track 5 accurately ripped (confidence 69) [C0861FDC] (AR v2)
Track 6 accurately ripped (confidence 69) [CD95B67E] (AR v2)
Track 7 accurately ripped (confidence 68) [2EA2F884] (AR v2)
Track 8 accurately ripped (confidence 68) [974B43A9] (AR v2)
Track 9 accurately ripped (confidence 68) [F6A343E4] (AR v2)
Track 10 accurately ripped (confidence 66) [A2194E7F] (AR v2)

All tracks accurately ripped

End of status report

—- CUETools DB Plugin V2.1.6

[CTDB TOCID: ZLYdCRwk9ip_oatVOXoh_R_GLDY-] found
Submit result: ZLYdCRwk9ip_oatVOXoh_R_GLDY- has been confirmed
Track | CTDB Status
1 | (161/168) Accurately ripped
2 | (165/168) Accurately ripped
3 | (164/168) Accurately ripped
4 | (162/168) Accurately ripped
5 | (164/168) Accurately ripped
6 | (164/168) Accurately ripped
7 | (165/168) Accurately ripped
8 | (164/168) Accurately ripped
9 | (165/168) Accurately ripped
10 | (165/168) Accurately ripped

==== Log checksum 83E576CE6F7115003F307F305D700607D1445C85F6C317C8E3F90C243E62A497 ====

REM GENRE Rock
REM DATE 1976
REM DISCID 79095C0A
REM COMMENT “ExactAudioCopy v1.1”
CATALOG 0000000000000
PERFORMER “Heart”
TITLE “Dreamboat Annie”
FILE “Heart – Dreamboat Annie.flac” WAVE
TRACK 01 AUDIO
TITLE “Magic Man”
PERFORMER “Heart”
INDEX 01 00:00:00
TRACK 02 AUDIO
TITLE “Dreamboat Annie (Fantasy Child)”
PERFORMER “Heart”
INDEX 01 05:28:27
TRACK 03 AUDIO
TITLE “Crazy On You”
PERFORMER “Heart”
INDEX 01 06:38:32
TRACK 04 AUDIO
TITLE “Soul Of The Sea”
PERFORMER “Heart”
INDEX 01 11:31:65
TRACK 05 AUDIO
TITLE “Dreamboat Annie”
PERFORMER “Heart”
INDEX 01 18:05:22
TRACK 06 AUDIO
TITLE “White Lightning & Wine”
PERFORMER “Heart”
INDEX 01 20:07:00
TRACK 07 AUDIO
TITLE “(Love Me Like Music) I’ll Be Your Song”
PERFORMER “Heart”
INDEX 00 24:00:20
INDEX 01 24:00:45
TRACK 08 AUDIO
TITLE “Sing Child”
PERFORMER “Heart”
INDEX 01 27:21:17
TRACK 09 AUDIO
TITLE “How Deep It Goes”
PERFORMER “Heart”
INDEX 01 32:16:42
TRACK 10 AUDIO
TITLE “Dreamboat Annie (Reprise)”
PERFORMER “Heart”
INDEX 00 36:05:10
INDEX 01 36:06:20


Leave a Reply

Your email address will not be published. Required fields are marked *

This site uses Akismet to reduce spam. Learn how your comment data is processed.