Heart – Dreamboat Annie Live




Artist: Heart
Year: 2007/2008
Genre: Rock
Notes: Discogs
Add. Notes:
Cover incl.: Yes
Encoder: FLAC
Bitrate: ~900 kBit/s (44.1 kHz/16 Bit/s)
Log & Cue incl.: Yes
Size: 505 MB
Password: “slam” (without ” “)


All Downloads/Hosters are compatible

Download 1
KatFile.com
Turbobit.net
Rapidgator.net
Download 2
KatFile.com
Turbobit.net
Rapidgator.net

Tracklist:

1 - Magic Man - 5:29
2 - Dreamboat Annie (Fantasy 
Child) - 1:57
3 - Crazy On You - 3:29
4 - Soul On The Sea - 6:25
5 - Dreamboat Annie - 2:09
6 - White Lightning & Wine - 3:24
7 - (Love Me Like Music) I'll Be Your 
Song - 2:57
8 - Sing Child - 3:47
9 - How Deep It Goes - 4:03
10 - Dreamboat Annie (Reprise) - 
4:04
11 - Mistral Wind - 7:34
12 - Goodbye Blue Sky - 3:36
13 - Black Dog - 4:50
14 - Misty Mountain Hop - 4:54
15 - Love Reign O'er Me - 6:26
Bonus Tracks From L.A. County Fair 
2007
16 - Love Alive - 5:12
17 - Isolation - 3:05

EAC-Log, CUE-Sheed & NFO:

Click to open spoiler
Exact Audio Copy V1.1 from 23. June 2015

EAC extraction logfile from 10. April 2016, 23:42

Heart / Dreamboat Annie Live

Used drive : ASUS DRW-24B1ST Adapter: 1 ID: 1

Read mode : Secure
Utilize accurate stream : Yes
Defeat audio cache : Yes
Make use of C2 pointers : No

Read offset correction : 6
Overread into Lead-In and Lead-Out : No
Fill up missing offset samples with silence : Yes
Delete leading and trailing silent blocks : No
Null samples used in CRC calculations : Yes
Used interface : Native Win32 interface for Win NT & 2000

Used output format : User Defined Encoder
Selected bitrate : 1024 kBit/s
Quality : High
Add ID3 tag : No
Command line compressor : C:\Program Files (x86)\Exact Audio Copy\Flac\flac.exe
Additional command line options : -V -8 -T “Date=%year%” -T “Genre=%genre%” %source%

TOC of the extracted CD

Track | Start | Length | Start sector | End sector
———————————————————
1 | 0:00.00 | 5:29.28 | 0 | 24702
2 | 5:29.28 | 1:57.48 | 24703 | 33525
3 | 7:27.01 | 3:29.71 | 33526 | 49271
4 | 10:56.72 | 6:25.62 | 49272 | 78208
5 | 17:22.59 | 2:09.45 | 78209 | 87928
6 | 19:32.29 | 3:24.21 | 87929 | 103249
7 | 22:56.50 | 2:57.32 | 103250 | 116556
8 | 25:54.07 | 3:47.71 | 116557 | 133652
9 | 29:42.03 | 4:03.34 | 133653 | 151911
10 | 33:45.37 | 4:04.65 | 151912 | 170276
11 | 37:50.27 | 7:34.39 | 170277 | 204365
12 | 45:24.66 | 3:36.00 | 204366 | 220565
13 | 49:00.66 | 4:50.36 | 220566 | 242351
14 | 53:51.27 | 4:54.26 | 242352 | 264427
15 | 58:45.53 | 6:26.41 | 264428 | 293418
16 | 65:12.19 | 5:12.55 | 293419 | 316873
17 | 70:24.74 | 3:05.62 | 316874 | 330810

Range status and errors

Selected range

Filename E:\Torrent\# MY\Heart – Discography\2008 – Dreamboat Annie Live (Eagle Records, EAGCD374, Germany)\Heart – Dreamboat Annie Live.wav

Peak level 100.0 %
Extraction speed 6.2 X
Range quality 100.0 %
Test CRC 214A8F24
Copy CRC 214A8F24
Copy OK

No errors occurred

AccurateRip summary

Track 1 accurately ripped (confidence 1) [4DBD3F78] (AR v1)
Track 2 accurately ripped (confidence 1) [E4B0E5F3] (AR v1)
Track 3 accurately ripped (confidence 1) [892DB153] (AR v1)
Track 4 accurately ripped (confidence 1) [9A5BE7A0] (AR v1)
Track 5 accurately ripped (confidence 1) [405F90AD] (AR v1)
Track 6 accurately ripped (confidence 1) [D1A26D8A] (AR v1)
Track 7 accurately ripped (confidence 1) [267BB7AE] (AR v1)
Track 8 accurately ripped (confidence 1) [BDC297E7] (AR v1)
Track 9 accurately ripped (confidence 1) [C1D6F41F] (AR v1)
Track 10 accurately ripped (confidence 1) [A591148B] (AR v1)
Track 11 accurately ripped (confidence 1) [01DE6104] (AR v1)
Track 12 accurately ripped (confidence 1) [F6A3D42F] (AR v1)
Track 13 accurately ripped (confidence 1) [DE615D57] (AR v1)
Track 14 accurately ripped (confidence 1) [29793205] (AR v1)
Track 15 accurately ripped (confidence 1) [2AD82631] (AR v1)
Track 16 accurately ripped (confidence 1) [663846C4] (AR v1)
Track 17 accurately ripped (confidence 1) [C2D531EF] (AR v1)

All tracks accurately ripped

End of status report

—- CUETools DB Plugin V2.1.6

[CTDB TOCID: vFD1_amb33i9hbe_4bQvJgKRXW0-] found
Submit result: vFD1_amb33i9hbe_4bQvJgKRXW0- has been confirmed
Track | CTDB Status
1 | (1/1) Accurately ripped
2 | (1/1) Accurately ripped
3 | (1/1) Accurately ripped
4 | (1/1) Accurately ripped
5 | (1/1) Accurately ripped
6 | (1/1) Accurately ripped
7 | (1/1) Accurately ripped
8 | (1/1) Accurately ripped
9 | (1/1) Accurately ripped
10 | (1/1) Accurately ripped
11 | (1/1) Accurately ripped
12 | (1/1) Accurately ripped
13 | (1/1) Accurately ripped
14 | (1/1) Accurately ripped
15 | (1/1) Accurately ripped
16 | (1/1) Accurately ripped
17 | (1/1) Accurately ripped

==== Log checksum E340C0C24F1335AFD984E66DE3951221442728F2094D7ABF3BC1D30AD0DB2EAA ====

REM GENRE Rock
REM DATE 2008
REM DISCID F0113A11
REM COMMENT “ExactAudioCopy v1.1”
PERFORMER “Heart”
TITLE “Dreamboat Annie Live”
FILE “Heart – Dreamboat Annie Live.flac” WAVE
TRACK 01 AUDIO
TITLE “Magic Man”
PERFORMER “Heart”
ISRC USR790729514
INDEX 01 00:00:00
TRACK 02 AUDIO
TITLE “Dreamboat Annie (Fantasy Child)”
PERFORMER “Heart”
ISRC USR790729515
INDEX 01 05:29:28
TRACK 03 AUDIO
TITLE “Crazy On You”
PERFORMER “Heart”
ISRC USR790729516
INDEX 01 07:27:01
TRACK 04 AUDIO
TITLE “Soul Of The Sea”
PERFORMER “Heart”
ISRC USR790729517
INDEX 01 10:56:72
TRACK 05 AUDIO
TITLE “Dreamboat Annie”
PERFORMER “Heart”
ISRC USR790729517
INDEX 01 17:22:59
TRACK 06 AUDIO
TITLE “White Lightning & Wine”
PERFORMER “Heart”
ISRC USR790729519
INDEX 01 19:32:29
TRACK 07 AUDIO
TITLE “(Love Me Like Music) I’ll Be Your Song”
PERFORMER “Heart”
ISRC USR790729520
INDEX 01 22:56:50
TRACK 08 AUDIO
TITLE “Sing Child”
PERFORMER “Heart”
ISRC USR790729521
INDEX 01 25:54:07
TRACK 09 AUDIO
TITLE “How Deep It Goes”
PERFORMER “Heart”
ISRC USR790729522
INDEX 01 29:42:03
TRACK 10 AUDIO
TITLE “Dreamboat Annie (Reprise)”
PERFORMER “Heart”
ISRC USR790729523
INDEX 01 33:45:37
TRACK 11 AUDIO
TITLE “Mistral Wind”
PERFORMER “Heart”
ISRC USR790729524
INDEX 01 37:50:27
TRACK 12 AUDIO
TITLE “Goodbye Blue Sky”
PERFORMER “Heart”
ISRC USR790729524
INDEX 01 45:24:66
TRACK 13 AUDIO
TITLE “Black Dog”
PERFORMER “Heart”
ISRC USR790729526
INDEX 01 49:00:66
TRACK 14 AUDIO
TITLE “Misty Mountain Hop”
PERFORMER “Heart”
ISRC USR790729527
INDEX 01 53:51:27
TRACK 15 AUDIO
TITLE “Love Reign O’er Me”
PERFORMER “Heart”
ISRC USR790729528
INDEX 01 58:45:53
TRACK 16 AUDIO
TITLE “Love Alive (LA County Fair 2007) (Bonus track)”
PERFORMER “Heart”
ISRC TbB4R0800058
INDEX 01 65:12:19
TRACK 17 AUDIO
TITLE “Isolation (LA County Fair 2007) (Bonus track)”
PERFORMER “Heart”
ISRC TbB4R0800058
INDEX 01 70:24:74


Leave a Reply

Your email address will not be published. Required fields are marked *

This site uses Akismet to reduce spam. Learn how your comment data is processed.