Heart – Dreamboat Annie (Japanese Edition)




Artist: Heart
Year: 1976/20215
Genre: Rock
Notes: Discogs
Add. Notes: Japanese Edition
Cover incl.: Yes
Encoder: FLAC
Bitrate: ~800 kBit/s (44.1 kHz/16 Bit/s)
Log & Cue incl.: Yes
Size: 270,87 MB
Password: “slam” (without ” “)


All Downloads/Hosters are compatible

Download 1
NitroFlare.com
KatFile.com
Turbobit.net
Rapidgator.net
UploadRar.com
Download 2
NitroFlare.com
KatFile.com
Turbobit.net
Rapidgator.net
UploadRar.com

Tracklist:

1 - Magic Man - 5:35
2 - Dreamboat Annie (Fantasy Child) - 1:55
3 - Crazy On You - 3:54
4 - Soul Of The Sea - 6:35
5 - Dreamboat Annie - 2:02
6 - White Lightning & Wine - 3:53
7 - (Love Me Like Music) I'll Be Your Song - 3:20
8 - Sing Child - 4:55
9 - How Deep It Goes - 3:49
10 - Dreamboat Annie (Reprise) - 3:48

EAC-Log, CUE-Sheed & NFO:

Click to open spoiler
Exact Audio Copy V1.3 from 2. September 2016

EAC extraction logfile from 21. April 2018, 15:37

Heart / Dreamboat Annie (UICY-25529)

Used drive : ASUS DRW-24B1ST Adapter: 1 ID: 1

Read mode : Secure
Utilize accurate stream : Yes
Defeat audio cache : Yes
Make use of C2 pointers : No

Read offset correction : 6
Overread into Lead-In and Lead-Out : No
Fill up missing offset samples with silence : Yes
Delete leading and trailing silent blocks : No
Null samples used in CRC calculations : Yes
Used interface : Native Win32 interface for Win NT & 2000

Used output format : User Defined Encoder
Selected bitrate : 1024 kBit/s
Quality : High
Add ID3 tag : No
Command line compressor : C:\Program Files (x86)\Exact Audio Copy\Flac\flac.exe
Additional command line options : -V -8 -T “Genre=%genre%” -T “Artist=%artist%” -T “Title=%title%” -T “Album=%albumtitle%” -T “Date=%year%” -T “Tracknumber=%tracknr%” -T “Comment=%comment%” %source%

TOC of the extracted CD

Track | Start | Length | Start sector | End sector
———————————————————
1 | 0:00.00 | 5:28.67 | 0 | 24666
2 | 5:28.67 | 1:10.08 | 24667 | 29924
3 | 6:39.00 | 4:53.32 | 29925 | 51931
4 | 11:32.32 | 6:33.33 | 51932 | 81439
5 | 18:05.65 | 2:01.52 | 81440 | 90566
6 | 20:07.42 | 3:53.48 | 90567 | 108089
7 | 24:01.15 | 3:20.42 | 108090 | 123131
8 | 27:21.57 | 4:55.28 | 123132 | 145284
9 | 32:17.10 | 3:49.52 | 145285 | 162511
10 | 36:06.62 | 3:47.43 | 162512 | 179579

Range status and errors

Selected range

Filename E:\Torrent\Ginger Devil\Heart\1976 – Dreamboat Annie (SHM-CD) (UICY-25529)\Heart – Dreamboat Annie (UICY-25529).wav

Peak level 98.7 %
Extraction speed 5.3 X
Range quality 99.9 %
Test CRC 24166A21
Copy CRC 24166A21
Copy OK

No errors occurred

AccurateRip summary

Track 1 cannot be verified as accurate (confidence 10) [17C6D856], AccurateRip returned [A3CF1289] (AR v2)
Track 2 cannot be verified as accurate (confidence 10) [B970DFF5], AccurateRip returned [3B8615ED] (AR v2)
Track 3 cannot be verified as accurate (confidence 10) [B7F48749], AccurateRip returned [8F3DB62E] (AR v2)
Track 4 cannot be verified as accurate (confidence 10) [3733796C], AccurateRip returned [90287C6E] (AR v2)
Track 5 cannot be verified as accurate (confidence 10) [DEF53E34], AccurateRip returned [67B73F31] (AR v2)
Track 6 cannot be verified as accurate (confidence 10) [D98BDA3C], AccurateRip returned [04EDB906] (AR v2)
Track 7 cannot be verified as accurate (confidence 10) [B32F5136], AccurateRip returned [EFF19BF4] (AR v2)
Track 8 cannot be verified as accurate (confidence 10) [769F3A55], AccurateRip returned [CAA6130E] (AR v2)
Track 9 cannot be verified as accurate (confidence 10) [F6E7B1E0], AccurateRip returned [5AF6A0C9] (AR v2)
Track 10 cannot be verified as accurate (confidence 10) [E3619799], AccurateRip returned [7F3838B3] (AR v2)

No tracks could be verified as accurate
You may have a different pressing from the one(s) in the database

End of status report

==== Log checksum 6E7920A57817BFCACA4CF18D0F26907FE1B094D254EF4D5531DB1F8CE8DCE250 ====

REM GENRE Rock
REM DATE 1976/2015
REM DISCID 7D095A0A
REM COMMENT “ExactAudioCopy v1.3”
CATALOG 0000000000000
PERFORMER “Heart”
TITLE “Dreamboat Annie (UICY-25529)”
REM COMPOSER “Heart”
FILE “Heart – Dreamboat Annie (UICY-25529).flac” WAVE
TRACK 01 AUDIO
TITLE “Magic Man”
PERFORMER “Heart”
REM COMPOSER “Heart”
ISRC USB328600005
INDEX 01 00:00:00
TRACK 02 AUDIO
TITLE “Dreamboat Annie (Fantasy Child)”
PERFORMER “Heart”
REM COMPOSER “Heart”
ISRC USB328600258
INDEX 01 05:28:67
TRACK 03 AUDIO
TITLE “Crazy On You”
PERFORMER “Heart”
REM COMPOSER “Heart”
ISRC USB328600007
INDEX 01 06:39:00
TRACK 04 AUDIO
TITLE “Soul Of The Sea”
PERFORMER “Heart”
REM COMPOSER “Heart”
ISRC USB328600257
INDEX 01 11:32:32
TRACK 05 AUDIO
TITLE “Dreamboat Annie”
PERFORMER “Heart”
REM COMPOSER “Heart”
ISRC USB328600680
INDEX 01 18:05:65
TRACK 06 AUDIO
TITLE “White Lightning & Wine”
PERFORMER “Heart”
REM COMPOSER “Heart”
ISRC USB328600259
INDEX 01 20:07:42
TRACK 07 AUDIO
TITLE “(Love Me Like Music) I’ll Be Your Song”
PERFORMER “Heart”
REM COMPOSER “Heart”
ISRC USB328600260
INDEX 01 24:01:15
TRACK 08 AUDIO
TITLE “Sing Child”
PERFORMER “Heart”
REM COMPOSER “Heart”
ISRC USB328600261
INDEX 01 27:21:57
TRACK 09 AUDIO
TITLE “How Deep It Goes”
PERFORMER “Heart”
REM COMPOSER “Heart”
ISRC USB328600262
INDEX 01 32:17:10
TRACK 10 AUDIO
TITLE “Dreamboat Annie (Reprise)”
PERFORMER “Heart”
REM COMPOSER “Heart”
ISRC USB328600263
INDEX 01 36:06:62


Leave a Reply

Your email address will not be published. Required fields are marked *

This site uses Akismet to reduce spam. Learn how your comment data is processed.