Heart – Dog & Butterfly (Remastered)




Artist: Heart
Year: 1978/2004
Genre: Rock
Notes: Discogs
Add. Notes: Remastered
Cover incl.: Yes
Encoder: FLAC
Bitrate: ~900 kBit/s (44.1 kHz/16 Bit/s)
Log & Cue incl.: Yes
Size: 369,78 MB
Password: “slam” (without ” “)


All Downloads/Hosters are compatible

Download 1
Turbobit.net
NitroFlare.com
KatFile.com
Rapidgator.net
Download 2
Turbobit.net
NitroFlare.com
KatFile.com
Rapidgator.net

Tracklist:

1 - Cook With Fire - 4:57
2 - High Time - 3:21
3 - Hijinx - 3:30
4 - Straight On - 5:05
5 - Dog & Butterfly - 5:21
6 - Lighter Touch - 5:03
7 - Nada One - 5:21
8 - Mistral Wind - 6:41
Previously Unreleased Bonus Tracks
9 - Heartless - 5:00
10 - Feels - 4:53
11 - A Little Bit - 0:49

EAC-Log, CUE-Sheed & NFO:

Click to open spoiler
Exact Audio Copy V1.1 from 23. June 2015

EAC extraction logfile from 30. September 2015, 10:36

Heart / Dog & Butterfly

Used drive : Optiarc DVD-ROM DDU1675S Adapter: 1 ID: 0

Read mode : Secure
Utilize accurate stream : Yes
Defeat audio cache : Yes
Make use of C2 pointers : No

Read offset correction : 6
Overread into Lead-In and Lead-Out : No
Fill up missing offset samples with silence : Yes
Delete leading and trailing silent blocks : No
Null samples used in CRC calculations : Yes
Used interface : Native Win32 interface for Win NT & 2000

Used output format : User Defined Encoder
Selected bitrate : 1024 kBit/s
Quality : High
Add ID3 tag : No
Command line compressor : F:\Install\All for Audio\Lossless\Codecs\FLAC.EXE
Additional command line options : -V -8 -T “Date=%year%” -T “Genre=%genre%” %source%

TOC of the extracted CD

Track | Start | Length | Start sector | End sector
———————————————————
1 | 0:00.00 | 4:57.01 | 0 | 22275
2 | 4:57.01 | 3:23.16 | 22276 | 37516
3 | 8:20.17 | 3:31.72 | 37517 | 53413
4 | 11:52.14 | 5:06.10 | 53414 | 76373
5 | 16:58.24 | 5:21.21 | 76374 | 100469
6 | 22:19.45 | 5:05.26 | 100470 | 123370
7 | 27:24.71 | 5:21.73 | 123371 | 147518
8 | 32:46.69 | 6:46.71 | 147519 | 178039
9 | 39:33.65 | 5:03.29 | 178040 | 200793
10 | 44:37.19 | 4:55.66 | 200794 | 222984
11 | 49:33.10 | 0:49.72 | 222985 | 226731

Range status and errors

Selected range

Filename E:\Torrent\# MY\# Подготовка раздач\Heart – Discography\1978-2 – Dog & Butterfly (Re-issue, Epic, EK 85771, U.S.A.)\Heart – Dog & Butterfly.wav

Peak level 100.0 %
Extraction speed 8.3 X
Range quality 100.0 %
Test CRC 84224260
Copy CRC 84224260
Copy OK

No errors occurred

AccurateRip summary

Track 1 accurately ripped (confidence 59) [350ADEBE] (AR v2)
Track 2 accurately ripped (confidence 59) [68C2B884] (AR v2)
Track 3 accurately ripped (confidence 60) [BD5859CA] (AR v2)
Track 4 accurately ripped (confidence 60) [53EF9DD9] (AR v2)
Track 5 accurately ripped (confidence 61) [6EA9FDD1] (AR v2)
Track 6 accurately ripped (confidence 60) [8050945B] (AR v2)
Track 7 accurately ripped (confidence 60) [5D9382F8] (AR v2)
Track 8 accurately ripped (confidence 60) [344CCE8F] (AR v2)
Track 9 accurately ripped (confidence 60) [8CC8AE3E] (AR v2)
Track 10 accurately ripped (confidence 58) [FA0E6BE1] (AR v2)
Track 11 accurately ripped (confidence 58) [B9ED38FE] (AR v2)

All tracks accurately ripped

End of status report

—- CUETools DB Plugin V2.1.6

[CTDB TOCID: GnS3zRquMbK77b3DmKO1bcjs0LU-] found
Submit result: GnS3zRquMbK77b3DmKO1bcjs0LU- has been confirmed
Track | CTDB Status
1 | (65/65) Accurately ripped
2 | (65/65) Accurately ripped
3 | (65/65) Accurately ripped
4 | (65/65) Accurately ripped
5 | (65/65) Accurately ripped
6 | (65/65) Accurately ripped
7 | (65/65) Accurately ripped
8 | (65/65) Accurately ripped
9 | (65/65) Accurately ripped
10 | (65/65) Accurately ripped
11 | (64/65) Accurately ripped

==== Log checksum E4FF87936DEB09FCABAFCF6D506E5E98D3E6941458CAF78B9DF3DB61F43FFCDE ====

REM GENRE Rock
REM DATE 1978
REM DISCID 9E0BCF0B
REM COMMENT “ExactAudioCopy v1.1”
PERFORMER “Heart”
TITLE “Dog & Butterfly”
FILE “Heart – Dog & Butterfly.flac” WAVE
TRACK 01 AUDIO
TITLE “Cook With Fire”
PERFORMER “Heart”
ISRC USSM19916393
INDEX 01 00:00:00
TRACK 02 AUDIO
TITLE “High Time”
PERFORMER “Heart”
ISRC USSM19916394
INDEX 01 04:57:01
TRACK 03 AUDIO
TITLE “Hijinx”
PERFORMER “Heart”
ISRC USSM19916395
INDEX 00 08:18:41
INDEX 01 08:20:17
TRACK 04 AUDIO
TITLE “Straight On”
PERFORMER “Heart”
ISRC USSM19916396
INDEX 00 11:51:29
INDEX 01 11:52:14
TRACK 05 AUDIO
TITLE “Dog & Butterfly”
PERFORMER “Heart”
ISRC USSM17800368
INDEX 00 16:57:36
INDEX 01 16:58:24
TRACK 06 AUDIO
TITLE “Lighter Touch”
PERFORMER “Heart”
ISRC USSM10404508
INDEX 01 22:19:45
TRACK 07 AUDIO
TITLE “Nada One”
PERFORMER “Heart”
ISRC USSM10404509
INDEX 00 27:23:36
INDEX 01 27:24:71
TRACK 08 AUDIO
TITLE “Mistral Wind”
PERFORMER “Heart”
ISRC USSM10404510
INDEX 01 32:46:69
TRACK 09 AUDIO
TITLE “Heartless (Live 1978) (Bonus track)”
PERFORMER “Heart”
ISRC USSM10404511
INDEX 00 39:29:09
INDEX 01 39:33:65
TRACK 10 AUDIO
TITLE “Feels (Recorded 1978) (Bonus track)”
PERFORMER “Heart”
ISRC USSM10404512
INDEX 00 44:34:45
INDEX 01 44:37:19
TRACK 11 AUDIO
TITLE “A Little Bit (Recorded 1982) (Bonus track)”
PERFORMER “Heart”
ISRC USSM10404513
INDEX 00 49:31:00
INDEX 01 49:33:10


Leave a Reply

Your email address will not be published. Required fields are marked *

This site uses Akismet to reduce spam. Learn how your comment data is processed.