Heart – Desire Walks On




[Total: 0    Average: 0/5]

Artist: Heart
Year: 1993
Genre: Rock
Notes: Discogs
Add. Notes:
Cover incl.: Yes
Encoder: FLAC
Bitrate: ~1000 kBit/s (44.1 kHz/16 Bit/s)
Log & Cue incl.: Yes
Size: 484 MB
Password: “slam” (without ” “)


All Downloads/Hosters are compatible

Download 1
KatFile.com
Turbobit.net
FileFactory.com
Rapidgator.net
Download 2
KatFile.com
Turbobit.net
FileFactory.com
Rapidgator.net

Tracklist:

1. Desire
2. Black On Black II
3. Back To Avalon
4. The Woman In Me
5. Rage
6. In Walks The Night
7. My Crazy Head
8. Ring Them Bells
9. Will You Be There (In The Morning)
10. Voodoo Doll
11. Anything Is Possible
12. Avalon (Reprise)
13. Desire Walks On
14. Mujer Que Hay En Mi
15. Te Quedaras (En La Manana)

EAC-Log, CUE-Sheed & NFO:

Click to open spoiler
Exact Audio Copy V1.1 from 23. June 2015

EAC extraction logfile from 15. September 2015, 11:48

Heart / Desire Walks On

Used drive : Optiarc DVD-ROM DDU1675S Adapter: 1 ID: 0

Read mode : Secure
Utilize accurate stream : Yes
Defeat audio cache : Yes
Make use of C2 pointers : No

Read offset correction : 6
Overread into Lead-In and Lead-Out : No
Fill up missing offset samples with silence : Yes
Delete leading and trailing silent blocks : No
Null samples used in CRC calculations : Yes
Used interface : Native Win32 interface for Win NT & 2000

Used output format : User Defined Encoder
Selected bitrate : 1024 kBit/s
Quality : High
Add ID3 tag : No
Command line compressor : F:\Install\All for Audio\Lossless\Codecs\FLAC.EXE
Additional command line options : -V -8 -T “Date=%year%” -T “Genre=%genre%” %source%

TOC of the extracted CD

Track | Start | Length | Start sector | End sector
———————————————————
1 | 0:01.00 | 0:17.50 | 75 | 1399
2 | 0:18.50 | 3:51.22 | 1400 | 18746
3 | 4:09.72 | 3:40.68 | 18747 | 35314
4 | 7:50.65 | 4:00.65 | 35315 | 53379
5 | 11:51.55 | 5:01.47 | 53380 | 76001
6 | 16:53.27 | 6:01.50 | 76002 | 103126
7 | 22:55.02 | 4:31.45 | 103127 | 123496
8 | 27:26.47 | 3:49.60 | 123497 | 140731
9 | 31:16.32 | 4:29.60 | 140732 | 160966
10 | 35:46.17 | 4:52.33 | 160967 | 182899
11 | 40:38.50 | 5:00.30 | 182900 | 205429
12 | 45:39.05 | 0:31.37 | 205430 | 207791
13 | 46:10.42 | 5:06.73 | 207792 | 230814
14 | 51:17.40 | 4:02.15 | 230815 | 248979
15 | 55:19.55 | 4:40.22 | 248980 | 270001

Range status and errors

Selected range

Filename E:\Torrent\# MY\# Подготовка раздач\Heart – Discography\1993 – Desire Walks On (Capitol, 7243 8 27540 2 2, Holland)\Heart – Desire Walks On.wav

Peak level 100.0 %
Extraction speed 4.9 X
Range quality 100.0 %
Test CRC 17CF00E0
Copy CRC 17CF00E0
Copy OK

No errors occurred

AccurateRip summary

Track 1 accurately ripped (confidence 36) [60770314] (AR v2)
Track 2 accurately ripped (confidence 35) [23379361] (AR v2)
Track 3 accurately ripped (confidence 35) [1A2F7349] (AR v2)
Track 4 accurately ripped (confidence 36) [046AEBD7] (AR v2)
Track 5 accurately ripped (confidence 35) [55DBF73B] (AR v2)
Track 6 accurately ripped (confidence 34) [0E357E46] (AR v2)
Track 7 accurately ripped (confidence 34) [D2A5C8E6] (AR v2)
Track 8 accurately ripped (confidence 34) [C795125D] (AR v2)
Track 9 accurately ripped (confidence 35) [05A1A2A2] (AR v2)
Track 10 accurately ripped (confidence 35) [855D6187] (AR v2)
Track 11 accurately ripped (confidence 35) [66B6ADC5] (AR v2)
Track 12 accurately ripped (confidence 33) [4C331060] (AR v2)
Track 13 accurately ripped (confidence 30) [AC1155CE] (AR v2)
Track 14 accurately ripped (confidence 32) [F234949A] (AR v2)
Track 15 accurately ripped (confidence 32) [2104ED08] (AR v2)

All tracks accurately ripped

End of status report

—- CUETools DB Plugin V2.1.6

[CTDB TOCID: mDqFacPteD4H537SnGpmlG7.hCw-] found
Submit result: mDqFacPteD4H537SnGpmlG7.hCw- has been confirmed
Track | CTDB Status
1 | (17/17) Accurately ripped
2 | (17/17) Accurately ripped
3 | (17/17) Accurately ripped
4 | (17/17) Accurately ripped
5 | (17/17) Accurately ripped
6 | (17/17) Accurately ripped
7 | (17/17) Accurately ripped
8 | (17/17) Accurately ripped
9 | (17/17) Accurately ripped
10 | (17/17) Accurately ripped
11 | (17/17) Accurately ripped
12 | (17/17) Accurately ripped
13 | (16/17) Accurately ripped
14 | (17/17) Accurately ripped
15 | (16/17) Accurately ripped

==== Log checksum 9188EF45B552F8216E2E28A080753AD9DDAEE2DEA467CF2525201A8ED33D6AB7 ====

REM GENRE Rock
REM DATE 1993
REM DISCID BE0E0F0F
REM COMMENT “ExactAudioCopy v1.1”
PERFORMER “Heart”
TITLE “Desire Walks On”
FILE “Heart – Desire Walks On.flac” WAVE
TRACK 01 AUDIO
TITLE “Desire”
PERFORMER “Heart”
INDEX 00 00:00:00
INDEX 01 00:01:00
TRACK 02 AUDIO
TITLE “Black On Black II”
PERFORMER “Heart”
INDEX 01 00:18:50
TRACK 03 AUDIO
TITLE “Back To Avalon”
PERFORMER “Heart”
INDEX 01 04:09:72
TRACK 04 AUDIO
TITLE “The Woman In Me”
PERFORMER “Heart”
INDEX 01 07:50:65
TRACK 05 AUDIO
TITLE “Rage”
PERFORMER “Heart”
INDEX 01 11:51:55
TRACK 06 AUDIO
TITLE “In Walks The Night”
PERFORMER “Heart”
INDEX 01 16:53:27
TRACK 07 AUDIO
TITLE “My Crazy Head”
PERFORMER “Heart”
INDEX 00 22:54:00
INDEX 01 22:55:02
TRACK 08 AUDIO
TITLE “Ring Them Bells”
PERFORMER “Heart”
INDEX 00 27:25:62
INDEX 01 27:26:47
TRACK 09 AUDIO
TITLE “Will You Be There (In The Morning)”
PERFORMER “Heart”
INDEX 01 31:16:32
TRACK 10 AUDIO
TITLE “Voodoo Doll”
PERFORMER “Heart”
INDEX 01 35:46:17
TRACK 11 AUDIO
TITLE “Anything Is Possible”
PERFORMER “Heart”
INDEX 01 40:38:50
TRACK 12 AUDIO
TITLE “Avalon (Reprise)”
PERFORMER “Heart”
INDEX 01 45:39:05
TRACK 13 AUDIO
TITLE “Desire Walks On”
PERFORMER “Heart”
INDEX 01 46:10:42
TRACK 14 AUDIO
TITLE “La Mujer Que Hay En Mi”
PERFORMER “Heart”
INDEX 00 51:14:60
INDEX 01 51:17:40
TRACK 15 AUDIO
TITLE “Te Quedaras (En La Manana)”
PERFORMER “Heart”
INDEX 00 55:18:67
INDEX 01 55:19:55


Spread the Download

Leave a Reply

Your email address will not be published. Required fields are marked *

Enter the text from the image below
 

This site uses Akismet to reduce spam. Learn how your comment data is processed.