Heart – Brigade




Artist: Heart
Year: 1990
Genre: Rock
Notes: Discogs
Add. Notes:
Cover incl.: Yes
Encoder: FLAC
Bitrate: ~1000 kBit/s (44.1 kHz/16 Bit/s)
Log & Cue incl.: Yes
Size: 394,3 MB
Password: “slam” (without ” “)


All Downloads/Hosters are compatible

Download 1
Turbobit.net
KatFile.com
Rapidgator.net
Download 2
Turbobit.net
KatFile.com
Rapidgator.net

Tracklist:

1 - Wild Child - 4:27
2 - All I Wanna Do Is Make Love To You - 5:05
3 - Secret - 4:10
4 - Tall, Dark Handsome Stranger - 4:00
5 - I Didn't Want To Need You - 4:05
6 - The Night - 4:50
7 - Fallen From Grace - 4:02
8 - Under The Sky - 2:51
9 - Cruel Nights - 3:58
10 - Stranded - 3:55
11 - Call Of The Wild - 4:00
12 - I Want Your World To Turn - 4:32
13 - I Love You - 3:50

EAC-Log, CUE-Sheed & NFO:

Click to open spoiler
Exact Audio Copy V1.1 from 23. June 2015

EAC extraction logfile from 1. October 2015, 13:38

Heart / Brigade

Used drive : Optiarc DVD-ROM DDU1675S Adapter: 1 ID: 0

Read mode : Secure
Utilize accurate stream : Yes
Defeat audio cache : Yes
Make use of C2 pointers : No

Read offset correction : 6
Overread into Lead-In and Lead-Out : No
Fill up missing offset samples with silence : Yes
Delete leading and trailing silent blocks : No
Null samples used in CRC calculations : Yes
Used interface : Native Win32 interface for Win NT & 2000

Used output format : User Defined Encoder
Selected bitrate : 1024 kBit/s
Quality : High
Add ID3 tag : No
Command line compressor : F:\Install\All for Audio\Lossless\Codecs\FLAC.EXE
Additional command line options : -V -8 -T “Date=%year%” -T “Genre=%genre%” %source%

TOC of the extracted CD

Track | Start | Length | Start sector | End sector
———————————————————
1 | 0:00.00 | 4:30.10 | 0 | 20259
2 | 4:30.10 | 5:10.67 | 20260 | 43576
3 | 9:41.02 | 4:14.28 | 43577 | 62654
4 | 13:55.30 | 4:04.22 | 62655 | 80976
5 | 17:59.52 | 4:09.40 | 80977 | 99691
6 | 22:09.17 | 4:53.10 | 99692 | 121676
7 | 27:02.27 | 4:07.35 | 121677 | 140236
8 | 31:09.62 | 2:53.20 | 140237 | 153231
9 | 34:03.07 | 4:04.28 | 153232 | 171559
10 | 38:07.35 | 3:58.62 | 171560 | 189471
11 | 42:06.22 | 4:05.43 | 189472 | 207889
12 | 46:11.65 | 4:36.12 | 207890 | 228601
13 | 50:48.02 | 3:50.63 | 228602 | 245914

Range status and errors

Selected range

Filename E:\Torrent\# MY\# Подготовка раздач\Heart – Discography\1990 – Brigade (Capitol, CDP 7 91820 2, U.S.A.)\Heart – Brigade.wav

Peak level 100.0 %
Extraction speed 8.1 X
Range quality 99.9 %
Test CRC DF7EC568
Copy CRC DF7EC568
Copy OK

No errors occurred

AccurateRip summary

Track 1 accurately ripped (confidence 10) [0154FECF] (AR v2)
Track 2 accurately ripped (confidence 9) [C55C4775] (AR v2)
Track 3 accurately ripped (confidence 10) [DF8157FC] (AR v2)
Track 4 accurately ripped (confidence 9) [1E737139] (AR v2)
Track 5 accurately ripped (confidence 9) [51675748] (AR v2)
Track 6 accurately ripped (confidence 9) [77BB9F90] (AR v2)
Track 7 accurately ripped (confidence 9) [CE12074A] (AR v2)
Track 8 accurately ripped (confidence 9) [77C0D247] (AR v2)
Track 9 accurately ripped (confidence 10) [64EE2853] (AR v2)
Track 10 accurately ripped (confidence 9) [8EDBE7EA] (AR v2)
Track 11 accurately ripped (confidence 9) [0184938E] (AR v2)
Track 12 accurately ripped (confidence 9) [0D5EF3D0] (AR v2)
Track 13 accurately ripped (confidence 9) [AA4F685B] (AR v2)

All tracks accurately ripped

End of status report

—- CUETools DB Plugin V2.1.6

[CTDB TOCID: 79X2nHdp6AfSFrUpIN9oort3Cpo-] found
Submit result: 79X2nHdp6AfSFrUpIN9oort3Cpo- has been confirmed
Track | CTDB Status
1 | (67/78) Accurately ripped
2 | (15/78) Accurately ripped, or (52/78) differs in 6 samples @00:26:44
3 | (67/78) Accurately ripped
4 | (14/78) Accurately ripped, or (52/78) differs in 12 samples @02:10:21
5 | (15/78) Accurately ripped, or (52/78) differs in 1 samples @04:05:28
6 | (15/78) Accurately ripped, or (52/78) differs in 30 samples @02:52:59,02:53:12,03:49:09
7 | (67/78) Accurately ripped
8 | (15/78) Accurately ripped, or (52/78) differs in 8 samples @00:00:24,00:05:53
9 | (15/78) Accurately ripped, or (52/78) differs in 12 samples @01:12:34,03:58:04,03:58:62
10 | (15/78) Accurately ripped, or (52/78) differs in 4 samples @03:53:26
11 | (15/78) Accurately ripped, or (52/78) differs in 6 samples @03:15:49
12 | (15/78) Accurately ripped, or (52/78) differs in 1 samples @04:34:06
13 | (67/78) Accurately ripped
If you are sure that your rip contains errors, you can use CUETools to repair it.

==== Log checksum D3CA7B26A8DDB81A53E479358F5CB14199E33CFE198BDCEBDA892EB954BB061B ====

REM GENRE Rock
REM DATE 1990
REM DISCID AB0CCE0D
REM COMMENT “ExactAudioCopy v1.1”
PERFORMER “Heart”
TITLE “Brigade”
FILE “Heart – Brigade.flac” WAVE
TRACK 01 AUDIO
TITLE “Wild Child”
PERFORMER “Heart”
INDEX 01 00:00:00
TRACK 02 AUDIO
TITLE “All I Wanna Do Is Make Love To You”
PERFORMER “Heart”
INDEX 00 04:29:57
INDEX 01 04:30:10
TRACK 03 AUDIO
TITLE “Secret”
PERFORMER “Heart”
INDEX 00 09:38:12
INDEX 01 09:41:02
TRACK 04 AUDIO
TITLE “Tall, Dark Handsome Stranger”
PERFORMER “Heart”
INDEX 00 13:54:17
INDEX 01 13:55:30
TRACK 05 AUDIO
TITLE “I Didn’t Want To Need You”
PERFORMER “Heart”
INDEX 00 17:58:35
INDEX 01 17:59:52
TRACK 06 AUDIO
TITLE “The Night”
PERFORMER “Heart”
INDEX 00 22:06:02
INDEX 01 22:09:17
TRACK 07 AUDIO
TITLE “Fallen From Grace”
PERFORMER “Heart”
INDEX 00 27:00:72
INDEX 01 27:02:27
TRACK 08 AUDIO
TITLE “Under The Sky”
PERFORMER “Heart”
INDEX 00 31:07:70
INDEX 01 31:09:62
TRACK 09 AUDIO
TITLE “Cruel Nights”
PERFORMER “Heart”
INDEX 01 34:03:07
TRACK 10 AUDIO
TITLE “Stranded”
PERFORMER “Heart”
INDEX 00 38:04:15
INDEX 01 38:07:35
TRACK 11 AUDIO
TITLE “Call Of The Wild”
PERFORMER “Heart”
INDEX 00 42:03:35
INDEX 01 42:06:22
TRACK 12 AUDIO
TITLE “I Want Your World To Turn”
PERFORMER “Heart”
INDEX 00 46:08:30
INDEX 01 46:11:65
TRACK 13 AUDIO
TITLE “I Love You”
PERFORMER “Heart”
INDEX 00 50:47:12
INDEX 01 50:48:02


Leave a Reply

Your email address will not be published. Required fields are marked *

This site uses Akismet to reduce spam. Learn how your comment data is processed.