Heart – Brigade (Limited Japanese Edition)




Artist: Heart
Year: 1990
Genre: Rock
Notes: Discogs
Add. Notes: Limited Japanese Edition
Cover incl.: Yes
Encoder: FLAC
Bitrate: ~900 kBit/s (44.1 kHz/16 Bit/s)
Log & Cue incl.: Yes
Size: 499 MB
Password: “slam” (without ” “)


All Downloads/Hosters are compatible

Download 1
KatFile.com
Rapidgator.net
Turbobit.net
FileFactory.com
Download 2
KatFile.com
Rapidgator.net
Turbobit.net
FileFactory.com

Tracklist:

1.1 - Wild Child - 4:27
1.2 - All I Wanna Do Is Make Love To 
You - 5:05
1.3 - Secret - 4:10
1.4 - Tall, Dark Handsome Stranger - 
4:00
1.5 - I Didn't Want To Need You - 
4:05
1.6 - The Night - 4:50
1.7 - Fallen From Grace - 4:02
1.8 - Under The Sky - 2:51
1.9 - Cruel Nights - 3:58
1.10 - Stranded - 3:55
1.11 - Call Of The Wild - 4:00
1.12 - I Want Your World To Turn - 
4:32
1.13 - I Love You - 3:50

2.1 - Cruel Tears - 4:18
2.2 - Never Stop Loving You - 3:59
2.3 - The Will To Love - 4:21

EAC-Log, CUE-Sheed & NFO:

Click to open spoiler
Exact Audio Copy V1.1 from 23. June 2015

EAC extraction logfile from 10. September 2016, 0:15

Heart / Brigade

Used drive : ASUS DRW-24B1ST Adapter: 1 ID: 1

Read mode : Secure
Utilize accurate stream : Yes
Defeat audio cache : Yes
Make use of C2 pointers : No

Read offset correction : 6
Overread into Lead-In and Lead-Out : No
Fill up missing offset samples with silence : Yes
Delete leading and trailing silent blocks : No
Null samples used in CRC calculations : Yes
Used interface : Native Win32 interface for Win NT & 2000

Used output format : User Defined Encoder
Selected bitrate : 1024 kBit/s
Quality : High
Add ID3 tag : No
Command line compressor : C:\Program Files (x86)\Exact Audio Copy\Flac\flac.exe
Additional command line options : -V -8 -T “Date=%year%” -T “Genre=%genre%” %source%

TOC of the extracted CD

Track | Start | Length | Start sector | End sector
———————————————————
1 | 0:00.00 | 4:30.55 | 0 | 20304
2 | 4:30.55 | 5:10.67 | 20305 | 43621
3 | 9:41.47 | 4:14.28 | 43622 | 62699
4 | 13:56.00 | 4:04.20 | 62700 | 81019
5 | 18:00.20 | 4:09.37 | 81020 | 99731
6 | 22:09.57 | 4:53.40 | 99732 | 121746
7 | 27:03.22 | 4:07.10 | 121747 | 140281
8 | 31:10.32 | 2:53.23 | 140282 | 153279
9 | 34:03.55 | 4:04.27 | 153280 | 171606
10 | 38:08.07 | 3:58.60 | 171607 | 189516
11 | 42:06.67 | 4:05.45 | 189517 | 207936
12 | 46:12.37 | 4:36.13 | 207937 | 228649
13 | 50:48.50 | 3:50.20 | 228650 | 245919

Range status and errors

Selected range

Filename E:\Torrent\# MY\# Подготовка раздач\Heart\1990 – Brigade (Capitol Records, TOCP-6130, Japan)\Heart – Brigade.wav

Peak level 100.0 %
Extraction speed 3.0 X
Range quality 100.0 %
Test CRC E0C6C73A
Copy CRC E0C6C73A
Copy OK

No errors occurred

AccurateRip summary

Track 1 accurately ripped (confidence 7) [B9E9F32C] (AR v2)
Track 2 accurately ripped (confidence 7) [6FAD8B5E] (AR v2)
Track 3 accurately ripped (confidence 7) [3149D787] (AR v2)
Track 4 accurately ripped (confidence 7) [41793F24] (AR v2)
Track 5 accurately ripped (confidence 7) [630665DF] (AR v2)
Track 6 accurately ripped (confidence 7) [3B61BCFC] (AR v2)
Track 7 accurately ripped (confidence 7) [201AE26E] (AR v2)
Track 8 accurately ripped (confidence 7) [349B72BE] (AR v2)
Track 9 accurately ripped (confidence 7) [66246068] (AR v2)
Track 10 accurately ripped (confidence 7) [957EF8C1] (AR v2)
Track 11 accurately ripped (confidence 7) [611FA93E] (AR v2)
Track 12 accurately ripped (confidence 7) [7309D298] (AR v2)
Track 13 accurately ripped (confidence 7) [1F277003] (AR v2)

All tracks accurately ripped

End of status report

—- CUETools DB Plugin V2.1.6

[CTDB TOCID: Zbp5EUr_DVFpjAVPUm_q48V84Y0-] found
Submit result: Zbp5EUr_DVFpjAVPUm_q48V84Y0- has been confirmed
Track | CTDB Status
1 | (20/22) Accurately ripped
2 | (21/22) Accurately ripped
3 | (21/22) Accurately ripped
4 | (21/22) Accurately ripped
5 | (21/22) Accurately ripped
6 | (21/22) Accurately ripped
7 | (21/22) Accurately ripped
8 | (21/22) Accurately ripped
9 | (21/22) Accurately ripped
10 | (21/22) Accurately ripped
11 | (21/22) Accurately ripped
12 | (21/22) Accurately ripped
13 | (20/22) Accurately ripped

==== Log checksum DF550691EC414371BA4FA09F2A206F5FC027F09850DCD33D869BD0725B6DFFF5 ====

Exact Audio Copy V1.1 from 23. June 2015

EAC extraction logfile from 9. September 2016, 23:41

Heart / Brigade

Used drive : ASUS DRW-24B1ST Adapter: 1 ID: 1

Read mode : Secure
Utilize accurate stream : Yes
Defeat audio cache : Yes
Make use of C2 pointers : No

Read offset correction : 6
Overread into Lead-In and Lead-Out : No
Fill up missing offset samples with silence : Yes
Delete leading and trailing silent blocks : No
Null samples used in CRC calculations : Yes
Used interface : Native Win32 interface for Win NT & 2000

Used output format : User Defined Encoder
Selected bitrate : 1024 kBit/s
Quality : High
Add ID3 tag : No
Command line compressor : C:\Program Files (x86)\Exact Audio Copy\Flac\flac.exe
Additional command line options : -V -8 -T “Date=%year%” -T “Genre=%genre%” %source%

TOC of the extracted CD

Track | Start | Length | Start sector | End sector
———————————————————
1 | 0:00.00 | 4:18.47 | 0 | 19396
2 | 4:18.47 | 3:59.55 | 19397 | 37376
3 | 8:18.27 | 4:21.40 | 37377 | 56991

Range status and errors

Selected range

Filename E:\Torrent\# MY\# Подготовка раздач\Heart\1990 – Brigade (Capitol Records, TOCP-6130, Japan)\Bonus CD\Heart – Brigade (Bonus CD).wav

Peak level 100.0 %
Extraction speed 3.1 X
Range quality 100.0 %
Test CRC 0973B8D5
Copy CRC 0973B8D5
Copy OK

No errors occurred

AccurateRip summary

Track 1 accurately ripped (confidence 4) [5E8F7DD5] (AR v2)
Track 2 accurately ripped (confidence 4) [802D3C61] (AR v2)
Track 3 accurately ripped (confidence 4) [7F00F387] (AR v2)

All tracks accurately ripped

End of status report

—- CUETools DB Plugin V2.1.6

[CTDB TOCID: diZ25i98xtJMNBS0bAAnb_JpJHY-] found
Submit result: diZ25i98xtJMNBS0bAAnb_JpJHY- has been confirmed
Track | CTDB Status
1 | (6/6) Accurately ripped
2 | (6/6) Accurately ripped
3 | (6/6) Accurately ripped

==== Log checksum BD62BAE71CC98927B05080084D5008EB8EE6F2A1BB67336C2F4091F76B8C3AF6 ====

REM GENRE “Hard Rock”
REM DATE 1990
REM DISCID A80CCE0D
REM COMMENT “ExactAudioCopy v1.1”
PERFORMER “Heart”
TITLE “Brigade”
FILE “Heart – Brigade.flac” WAVE
TRACK 01 AUDIO
TITLE “Wild Child”
PERFORMER “Heart”
INDEX 01 00:00:00
TRACK 02 AUDIO
TITLE “All I Wanna Do Is Make Love To You”
PERFORMER “Heart”
INDEX 00 04:30:07
INDEX 01 04:30:55
TRACK 03 AUDIO
TITLE “Secret”
PERFORMER “Heart”
INDEX 00 09:38:17
INDEX 01 09:41:47
TRACK 04 AUDIO
TITLE “Tall, Dark Handsome Stranger”
PERFORMER “Heart”
INDEX 00 13:54:35
INDEX 01 13:56:00
TRACK 05 AUDIO
TITLE “I Didn’t Want To Need You”
PERFORMER “Heart”
INDEX 00 17:58:57
INDEX 01 18:00:20
TRACK 06 AUDIO
TITLE “The Night”
PERFORMER “Heart”
INDEX 00 22:06:25
INDEX 01 22:09:57
TRACK 07 AUDIO
TITLE “Fallen From Grace”
PERFORMER “Heart”
INDEX 00 27:01:10
INDEX 01 27:03:22
TRACK 08 AUDIO
TITLE “Under The Sky”
PERFORMER “Heart”
INDEX 00 31:08:17
INDEX 01 31:10:32
TRACK 09 AUDIO
TITLE “Cruel Nights”
PERFORMER “Heart”
INDEX 00 34:03:42
INDEX 01 34:03:55
TRACK 10 AUDIO
TITLE “Stranded”
PERFORMER “Heart”
INDEX 00 38:04:35
INDEX 01 38:08:07
TRACK 11 AUDIO
TITLE “Call Of The Wild”
PERFORMER “Heart”
INDEX 00 42:03:50
INDEX 01 42:06:67
TRACK 12 AUDIO
TITLE “I Want Your World To Turn”
PERFORMER “Heart”
INDEX 00 46:08:50
INDEX 01 46:12:37
TRACK 13 AUDIO
TITLE “I Love You”
PERFORMER “Heart”
INDEX 00 50:47:22
INDEX 01 50:48:50

REM GENRE “Hard Rock”
REM DATE 1990
REM DISCID 0F02F703
REM COMMENT “ExactAudioCopy v1.1”
PERFORMER “Heart”
TITLE “Brigade”
FILE “Heart – Brigade (Bonus CD).flac” WAVE
TRACK 01 AUDIO
TITLE “Cruel Tears”
PERFORMER “Heart”
INDEX 01 00:00:00
TRACK 02 AUDIO
TITLE “Never Stop Loving You”
PERFORMER “Heart”
INDEX 00 04:15:72
INDEX 01 04:18:47
TRACK 03 AUDIO
TITLE “The Will To Love”
PERFORMER “Heart”
INDEX 00 08:15:52
INDEX 01 08:18:27


0

Publication author

offline 12 hours

Chaos

3
Comments: 3Publics: 3189Registration: 02-02-2019
Spread the Download

Leave a Reply

Your email address will not be published. Required fields are marked *

Enter the text from the image below
 

This site uses Akismet to reduce spam. Learn how your comment data is processed.