Heart – Bebe Le Strange (Remastered)




Artist: Heart
Year: 1980/2004
Genre: Rock
Notes: Discogs
Add. Notes: Remastered
Cover incl.: Yes
Encoder: FLAC
Bitrate: ~900 kBit/s (44.1 kHz/16 Bit/s)
Log & Cue incl.: Yes
Size: 340,34 MB
Password: “slam” (without ” “)


All Downloads/Hosters are compatible

Download 1
Turbobit.net
KatFile.com
Rapidgator.net
Download 2
Turbobit.net
KatFile.com
Rapidgator.net

Tracklist:

1 - Bebe Le Strange - 3:39
2 - Down On Me - 4:47
3 - Silver Wheels - 1:23
4 - Break - 2:32
5 - Rockin' Heaven Down - 5:54
6 - Even It Up - 5:11
7 - Strange Night - 4:17
8 - Raised On You - 3:21
9 - Pilot - 3:16
10 - Sweet Darlin' - 3:17
11 - Jackleg Man (Previously Unreleased) - 3:02
12 - Break (Live 1980) (Previously Unreleased - 3:03

EAC-Log, CUE-Sheed & NFO:

Click to open spoiler
Exact Audio Copy V1.1 from 23. June 2015

EAC extraction logfile from 30. September 2015, 18:11

Heart / Bebe Le Strange

Used drive : Optiarc DVD-ROM DDU1675S Adapter: 1 ID: 0

Read mode : Secure
Utilize accurate stream : Yes
Defeat audio cache : Yes
Make use of C2 pointers : No

Read offset correction : 6
Overread into Lead-In and Lead-Out : No
Fill up missing offset samples with silence : Yes
Delete leading and trailing silent blocks : No
Null samples used in CRC calculations : Yes
Used interface : Native Win32 interface for Win NT & 2000

Used output format : User Defined Encoder
Selected bitrate : 1024 kBit/s
Quality : High
Add ID3 tag : No
Command line compressor : F:\Install\All for Audio\Lossless\Codecs\FLAC.EXE
Additional command line options : -V -8 -T “Date=%year%” -T “Genre=%genre%” %source%

TOC of the extracted CD

Track | Start | Length | Start sector | End sector
———————————————————
1 | 0:00.00 | 3:39.61 | 0 | 16485
2 | 3:39.61 | 4:54.56 | 16486 | 38591
3 | 8:34.42 | 1:27.27 | 38592 | 45143
4 | 10:01.69 | 2:33.60 | 45144 | 56678
5 | 12:35.54 | 5:54.06 | 56679 | 83234
6 | 18:29.60 | 5:11.04 | 83235 | 106563
7 | 23:40.64 | 4:17.34 | 106564 | 125872
8 | 27:58.23 | 3:21.52 | 125873 | 140999
9 | 31:20.00 | 3:16.42 | 141000 | 155741
10 | 34:36.42 | 3:22.15 | 155742 | 170906
11 | 37:58.57 | 3:05.49 | 170907 | 184830
12 | 41:04.31 | 3:03.33 | 184831 | 198588

Range status and errors

Selected range

Filename E:\Torrent\# MY\# Подготовка раздач\Heart – Discography\1980 – Bebe Le Strange (Re-issue, Epic, EK 85770, U.S.A.)\Heart – Bebe Le Strange.wav

Peak level 100.0 %
Extraction speed 4.5 X
Range quality 100.0 %
Test CRC 7B4F11DE
Copy CRC 7B4F11DE
Copy OK

No errors occurred

AccurateRip summary

Track 1 accurately ripped (confidence 28) [FDB253D7] (AR v2)
Track 2 accurately ripped (confidence 29) [76732097] (AR v2)
Track 3 accurately ripped (confidence 29) [DBF1DFD7] (AR v2)
Track 4 accurately ripped (confidence 29) [290A8D90] (AR v2)
Track 5 accurately ripped (confidence 29) [24E43E35] (AR v2)
Track 6 accurately ripped (confidence 29) [56A72CE4] (AR v2)
Track 7 accurately ripped (confidence 29) [F3876216] (AR v2)
Track 8 accurately ripped (confidence 29) [AAC08B28] (AR v2)
Track 9 accurately ripped (confidence 29) [24B473D9] (AR v2)
Track 10 accurately ripped (confidence 29) [C5BE83A2] (AR v2)
Track 11 accurately ripped (confidence 29) [DC2D3D46] (AR v2)
Track 12 accurately ripped (confidence 29) [4D2A0D05] (AR v2)

All tracks accurately ripped

End of status report

—- CUETools DB Plugin V2.1.6

[CTDB TOCID: 6Bsd9m6OFcC_GJgooTpfkNWyDao-] found
Submit result: 6Bsd9m6OFcC_GJgooTpfkNWyDao- has been confirmed
Track | CTDB Status
1 | (45/45) Accurately ripped
2 | (45/45) Accurately ripped
3 | (45/45) Accurately ripped
4 | (45/45) Accurately ripped
5 | (45/45) Accurately ripped
6 | (45/45) Accurately ripped
7 | (45/45) Accurately ripped
8 | (45/45) Accurately ripped
9 | (45/45) Accurately ripped
10 | (45/45) Accurately ripped
11 | (45/45) Accurately ripped
12 | (45/45) Accurately ripped

==== Log checksum 3EFADB037963BDC329418AD6BC27141E48A67C32AB4BC56635225496F802EE69 ====

REM GENRE Rock
REM DATE 1980
REM DISCID 8D0A570C
REM COMMENT “ExactAudioCopy v1.1”
PERFORMER “Heart”
TITLE “Bebe Le Strange”
FILE “Heart – Bebe Le Strange.flac” WAVE
TRACK 01 AUDIO
TITLE “Bebe Le Strange”
PERFORMER “Heart”
ISRC USSM19921941
INDEX 01 00:00:00
TRACK 02 AUDIO
TITLE “Down On Me”
PERFORMER “Heart”
ISRC USSM18000718
INDEX 01 03:39:61
TRACK 03 AUDIO
TITLE “Silver Wheels”
PERFORMER “Heart”
ISRC USSM18000717
INDEX 00 08:27:06
INDEX 01 08:34:42
TRACK 04 AUDIO
TITLE “Break”
PERFORMER “Heart”
ISRC USSM18000716
INDEX 00 09:58:61
INDEX 01 10:01:69
TRACK 05 AUDIO
TITLE “Rockin’ Heaven Down”
PERFORMER “Heart”
ISRC USSM18000715
INDEX 00 12:34:71
INDEX 01 12:35:54
TRACK 06 AUDIO
TITLE “Even It Up”
PERFORMER “Heart”
ISRC USSM18000715
INDEX 01 18:29:60
TRACK 07 AUDIO
TITLE “Strange Night”
PERFORMER “Heart”
ISRC USSM18000714
INDEX 01 23:40:64
TRACK 08 AUDIO
TITLE “Raised On You”
PERFORMER “Heart”
ISRC USSM18000712
INDEX 01 27:58:23
TRACK 09 AUDIO
TITLE “Pilot”
PERFORMER “Heart”
ISRC USSM18000719
INDEX 01 31:20:00
TRACK 10 AUDIO
TITLE “Sweet Darlin'”
PERFORMER “Heart”
ISRC USSM19921944
INDEX 01 34:36:42
TRACK 11 AUDIO
TITLE “Jackleg Man (Recorded 1979-1980) (Bonus track)”
PERFORMER “Heart”
ISRC USSM10404401
INDEX 00 37:54:02
INDEX 01 37:58:57
TRACK 12 AUDIO
TITLE “Break (Live 1980) (Bonus track)”
PERFORMER “Heart”
ISRC USSM10404402
INDEX 00 41:01:05
INDEX 01 41:04:31


Leave a Reply

Your email address will not be published. Required fields are marked *

This site uses Akismet to reduce spam. Learn how your comment data is processed.