Heart – Ballads The Greatest Hits (Japanese Edition)




Artist: Heart
Year: 1996
Genre: Rock
Notes: Discogs
Add. Notes: Japanese Edition
Cover incl.: Yes
Encoder: FLAC
Bitrate: ~900 kBit/s (44.1 kHz/16 Bit/s)
Log & Cue incl.: Yes
Size: 365,1 MB
Password: “slam” (without ” “)


All Downloads/Hosters are compatible

Download 1
KatFile.com
Turbobit.net
FileFactory.com
Rapidgator.net
Download 2
KatFile.com
Turbobit.net
FileFactory.com
Rapidgator.net

Tracklist:

1 Alone 3:39
2 What About Love 3:41
3 All I Wanna Do Is Make Love To You 5:07
4 Without You 4:43
5 Never 4:05
6 Never Stop Loving You 3:56
7 I Didn't Want To Need You 4:06
8 These Dreams 4:15
9 The Woman In Me 4:00
10 Stranded 3:55
11 Strangers Of The Heart 3:39
12 All I Wanna Do Is Make Love To You (Live) 6:32

EAC-Log, CUE-Sheed & NFO:

Click to open spoiler
Exact Audio Copy V1.1 from 23. June 2015

EAC extraction logfile from 31. May 2017, 20:01

Heart / Ballads: The Greatest Hits

Used drive : ASUS DRW-24B1ST Adapter: 1 ID: 1

Read mode : Secure
Utilize accurate stream : Yes
Defeat audio cache : Yes
Make use of C2 pointers : No

Read offset correction : 6
Overread into Lead-In and Lead-Out : No
Fill up missing offset samples with silence : Yes
Delete leading and trailing silent blocks : No
Null samples used in CRC calculations : Yes
Used interface : Native Win32 interface for Win NT & 2000

Used output format : User Defined Encoder
Selected bitrate : 1024 kBit/s
Quality : High
Add ID3 tag : No
Command line compressor : C:\Program Files (x86)\Exact Audio Copy\Flac\flac.exe
Additional command line options : -V -8 -T “Genre=%genre%” -T “Artist=%artist%” -T “Title=%title%” -T “Album=%albumtitle%” -T “Date=%year%” -T “Tracknumber=%tracknr%” -T “Comment=%comment%” %source%

TOC of the extracted CD

Track | Start | Length | Start sector | End sector
———————————————————
1 | 0:00.00 | 3:41.42 | 0 | 16616
2 | 3:41.42 | 3:43.00 | 16617 | 33341
3 | 7:24.42 | 5:09.43 | 33342 | 56559
4 | 12:34.10 | 4:44.70 | 56560 | 77929
5 | 17:19.05 | 4:07.07 | 77930 | 96461
6 | 21:26.12 | 3:58.40 | 96462 | 114351
7 | 25:24.52 | 4:08.13 | 114352 | 132964
8 | 29:32.65 | 4:16.62 | 132965 | 152226
9 | 33:49.52 | 4:02.15 | 152227 | 170391
10 | 37:51.67 | 3:57.43 | 170392 | 188209
11 | 41:49.35 | 3:41.47 | 188210 | 204831
12 | 45:31.07 | 6:32.60 | 204832 | 234291

Range status and errors

Selected range

Filename E:\Torrent\# MY\# Подготовка раздач\Heart\1996 – Ballads – The Greatest Hits\Heart – Ballads – The Greatest Hits.wav

Peak level 100.0 %
Extraction speed 3.0 X
Range quality 100.0 %
Test CRC A7ACD4AA
Copy CRC A7ACD4AA
Copy OK

No errors occurred

AccurateRip summary

Track 1 accurately ripped (confidence 6) [417A3D06] (AR v2)
Track 2 accurately ripped (confidence 6) [8C4B0BBC] (AR v2)
Track 3 accurately ripped (confidence 6) [B836469C] (AR v2)
Track 4 accurately ripped (confidence 6) [BA547DF0] (AR v2)
Track 5 accurately ripped (confidence 6) [CB18E6AF] (AR v2)
Track 6 accurately ripped (confidence 6) [F18ACB5E] (AR v2)
Track 7 accurately ripped (confidence 6) [65869090] (AR v2)
Track 8 accurately ripped (confidence 6) [C49C5A2D] (AR v2)
Track 9 accurately ripped (confidence 6) [4C7D3ED6] (AR v2)
Track 10 accurately ripped (confidence 6) [45DD6D42] (AR v2)
Track 11 accurately ripped (confidence 6) [8702916D] (AR v2)
Track 12 accurately ripped (confidence 5) [7D1F35CB] (AR v2)

All tracks accurately ripped

End of status report

—- CUETools DB Plugin V2.1.6

[CTDB TOCID: 620phO9PXIgKg.X69p0A59mTtmw-] found
Submit result: 620phO9PXIgKg.X69p0A59mTtmw- has been confirmed
Track | CTDB Status
1 | (16/16) Accurately ripped
2 | (16/16) Accurately ripped
3 | (16/16) Accurately ripped
4 | (16/16) Accurately ripped
5 | (16/16) Accurately ripped
6 | (16/16) Accurately ripped
7 | (16/16) Accurately ripped
8 | (16/16) Accurately ripped
9 | (16/16) Accurately ripped
10 | (16/16) Accurately ripped
11 | (16/16) Accurately ripped
12 | (15/16) Accurately ripped

==== Log checksum 8A40682C0808258E48FD1F3F846D7E213AAF1C8525ACDA58C921EB9A114506A3 ====

REM GENRE Rock
REM DATE 1996
REM DISCID 8F0C330C
REM COMMENT “ExactAudioCopy v1.1”
PERFORMER “Heart”
TITLE “Ballads: The Greatest Hits”
FILE “Heart – Ballads – The Greatest Hits.flac” WAVE
TRACK 01 AUDIO
TITLE “Alone”
PERFORMER “Heart”
INDEX 01 00:00:00
TRACK 02 AUDIO
TITLE “What About Love?”
PERFORMER “Heart”
INDEX 00 03:39:67
INDEX 01 03:41:42
TRACK 03 AUDIO
TITLE “All I Wanna Do Is Make Love To You”
PERFORMER “Heart”
INDEX 00 07:22:67
INDEX 01 07:24:42
TRACK 04 AUDIO
TITLE “Without You”
PERFORMER “Heart”
INDEX 00 12:32:35
INDEX 01 12:34:10
TRACK 05 AUDIO
TITLE “Never”
PERFORMER “Heart”
INDEX 00 17:17:30
INDEX 01 17:19:05
TRACK 06 AUDIO
TITLE “Never Stop Loving You”
PERFORMER “Heart”
INDEX 00 21:24:37
INDEX 01 21:26:12
TRACK 07 AUDIO
TITLE “I Didn’t Want To Need You”
PERFORMER “Heart”
INDEX 00 25:23:02
INDEX 01 25:24:52
TRACK 08 AUDIO
TITLE “These Dreams”
PERFORMER “Heart”
INDEX 00 29:31:15
INDEX 01 29:32:65
TRACK 09 AUDIO
TITLE “The Woman In Me”
PERFORMER “Heart”
INDEX 00 33:48:02
INDEX 01 33:49:52
TRACK 10 AUDIO
TITLE “Stranded”
PERFORMER “Heart”
INDEX 00 37:50:17
INDEX 01 37:51:67
TRACK 11 AUDIO
TITLE “Strangers Of The Heart”
PERFORMER “Heart”
INDEX 00 41:47:60
INDEX 01 41:49:35
TRACK 12 AUDIO
TITLE “All I Wanna Do Is Make Love To You (Live)”
PERFORMER “Heart”
INDEX 00 45:29:32
INDEX 01 45:31:07


Leave a Reply

Your email address will not be published. Required fields are marked *

This site uses Akismet to reduce spam. Learn how your comment data is processed.