Heart – Bad Animals




Artist: Heart
Year: 1987
Genre: Rock
Notes: Discogs
Add. Notes:
Cover incl.: Yes
Encoder: FLAC
Bitrate: ~900 kBit/s (44.1 kHz/16 Bit/s)
Log & Cue incl.: Yes
Size: 279 MB
Password: “slam” (without ” “)


All Downloads/Hosters are compatible

Download 1
KatFile.com
Rapidgator.net
FileFactory.com
Turbobit.net
Download 2
KatFile.com
Rapidgator.net
FileFactory.com
Turbobit.net

Tracklist:

1 - Who Will You Run To - 4:06
2 - Alone - 3:38
3 - There's The Girl - 3:50
4 - I Want You So Bad - 4:21
5 - Wait For An Answer - 4:29
6 - Bad Animals - 4:54
7 - You Ain't So Tough - 4:05
8 - Strangers Of The Heart - 3:40
9 - Easy Target - 3:57
10 - RSVP - 3:39

EAC-Log, CUE-Sheed & NFO:

Click to open spoiler
Exact Audio Copy V1.1 from 23. June 2015

EAC extraction logfile from 1. October 2015, 13:15

Heart / Bad Animals

Used drive : Optiarc DVD-ROM DDU1675S Adapter: 1 ID: 0

Read mode : Secure
Utilize accurate stream : Yes
Defeat audio cache : Yes
Make use of C2 pointers : No

Read offset correction : 6
Overread into Lead-In and Lead-Out : No
Fill up missing offset samples with silence : Yes
Delete leading and trailing silent blocks : No
Null samples used in CRC calculations : Yes
Used interface : Native Win32 interface for Win NT & 2000

Used output format : User Defined Encoder
Selected bitrate : 1024 kBit/s
Quality : High
Add ID3 tag : No
Command line compressor : F:\Install\All for Audio\Lossless\Codecs\FLAC.EXE
Additional command line options : -V -8 -T “Date=%year%” -T “Genre=%genre%” %source%

TOC of the extracted CD

Track | Start | Length | Start sector | End sector
———————————————————
1 | 0:00.32 | 4:06.30 | 32 | 18511
2 | 4:06.62 | 3:38.55 | 18512 | 34916
3 | 7:45.42 | 3:50.05 | 34917 | 52171
4 | 11:35.47 | 4:21.48 | 52172 | 71794
5 | 15:57.20 | 4:31.37 | 71795 | 92156
6 | 20:28.57 | 4:54.10 | 92157 | 114216
7 | 25:22.67 | 4:05.45 | 114217 | 132636
8 | 29:28.37 | 3:41.15 | 132637 | 149226
9 | 33:09.52 | 3:58.35 | 149227 | 167111
10 | 37:08.12 | 3:39.13 | 167112 | 183549

Range status and errors

Selected range

Filename E:\Torrent\# MY\# Подготовка раздач\Heart – Discography\1987 – Bad Animals (Capitol, 0777 7 46676 2 3, U.K.)\Heart – Bad Animals.wav

Peak level 100.0 %
Extraction speed 4.0 X
Range quality 100.0 %
Test CRC B3009415
Copy CRC B3009415
Copy OK

No errors occurred

AccurateRip summary

Track 1 accurately ripped (confidence 4) [36F17A64] (AR v2)
Track 2 accurately ripped (confidence 4) [C733A332] (AR v2)
Track 3 accurately ripped (confidence 4) [32F70C55] (AR v2)
Track 4 accurately ripped (confidence 4) [76B4589C] (AR v2)
Track 5 accurately ripped (confidence 4) [96BE4BCD] (AR v2)
Track 6 accurately ripped (confidence 4) [1A78D2E9] (AR v2)
Track 7 accurately ripped (confidence 4) [E3E29B73] (AR v2)
Track 8 accurately ripped (confidence 4) [2379B5A8] (AR v2)
Track 9 accurately ripped (confidence 4) [90EC5BDC] (AR v2)
Track 10 accurately ripped (confidence 4) [DB8ACF4D] (AR v2)

All tracks accurately ripped

End of status report

—- CUETools DB Plugin V2.1.6

[CTDB TOCID: R_Mc3Vy26x8O2hie7jY93MUZYMA-] found
Submit result: R_Mc3Vy26x8O2hie7jY93MUZYMA- has been confirmed
Track | CTDB Status
1 | (101/102) Accurately ripped
2 | (101/102) Accurately ripped
3 | (101/102) Accurately ripped
4 | (100/102) Accurately ripped
5 | (100/102) Accurately ripped
6 | (100/102) Accurately ripped
7 | (101/102) Accurately ripped
8 | (101/102) Accurately ripped
9 | (101/102) Accurately ripped
10 | (101/102) Accurately ripped

==== Log checksum A8331BEB84576EEF0434EEF8DC4741CA019E1D4176116016B790EDBC62CDD9FD ====

REM GENRE Rock
REM DATE 1987
REM DISCID 8A098F0A
REM COMMENT “ExactAudioCopy v1.1”
PERFORMER “Heart”
TITLE “Bad Animals”
FILE “Heart – Bad Animals.flac” WAVE
TRACK 01 AUDIO
TITLE “Who Will You Run To”
PERFORMER “Heart”
INDEX 00 00:00:00
INDEX 01 00:00:32
TRACK 02 AUDIO
TITLE “Alone”
PERFORMER “Heart”
INDEX 00 04:06:60
INDEX 01 04:06:62
TRACK 03 AUDIO
TITLE “There’s The Girl”
PERFORMER “Heart”
INDEX 00 07:45:40
INDEX 01 07:45:42
TRACK 04 AUDIO
TITLE “I Want You So Bad”
PERFORMER “Heart”
INDEX 00 11:35:45
INDEX 01 11:35:47
TRACK 05 AUDIO
TITLE “Wait For An Answer”
PERFORMER “Heart”
INDEX 00 15:57:17
INDEX 01 15:57:20
TRACK 06 AUDIO
TITLE “Bad Animals”
PERFORMER “Heart”
INDEX 00 20:27:05
INDEX 01 20:28:57
TRACK 07 AUDIO
TITLE “You Ain’t So Tough”
PERFORMER “Heart”
INDEX 00 25:22:65
INDEX 01 25:22:67
TRACK 08 AUDIO
TITLE “Strangers Of The Heart”
PERFORMER “Heart”
INDEX 00 29:28:35
INDEX 01 29:28:37
TRACK 09 AUDIO
TITLE “Easy Target”
PERFORMER “Heart”
INDEX 00 33:08:60
INDEX 01 33:09:52
TRACK 10 AUDIO
TITLE “RSVP”
PERFORMER “Heart”
INDEX 00 37:07:25
INDEX 01 37:08:12
r


Leave a Reply

Your email address will not be published. Required fields are marked *

This site uses Akismet to reduce spam. Learn how your comment data is processed.