Heart – Bad Animals (Remastered Japanese Edition)




Artist: Heart
Year: 1987/2015
Genre: Rock
Notes: Discogs
Add. Notes: Remastered Japanese Edition
Cover incl.: Yes
Encoder: FLAC
Bitrate: ~900 kBit/s (44.1 kHz/16 Bit/s)
Log & Cue incl.: Yes
Size: 298,49 MB
Password: “slam” (without ” “)


All Downloads/Hosters are compatible

Download 1
Turbobit.net
KatFile.com
Rapidgator.net
Download 2
Turbobit.net
KatFile.com
Rapidgator.net

Tracklist:

1. Who Will You Run To 
2. Alone 
3. There's The Girl 
4. I Want You So Bad 
5. Wait For An Answer 
6. Bad Animals 
7. You Ain't So Tough 
8. Strangers Of The Heart 
9. Easy Target 
10. RSVP

EAC-Log, CUE-Sheed & NFO:

Click to open spoiler
Exact Audio Copy V1.3 from 2. September 2016

EAC extraction logfile from 28. April 2018, 18:59

Heart / Bad Animals (UICY-25532)

Used drive : ASUS DRW-24B1ST Adapter: 1 ID: 1

Read mode : Secure
Utilize accurate stream : Yes
Defeat audio cache : Yes
Make use of C2 pointers : No

Read offset correction : 6
Overread into Lead-In and Lead-Out : No
Fill up missing offset samples with silence : Yes
Delete leading and trailing silent blocks : No
Null samples used in CRC calculations : Yes
Used interface : Native Win32 interface for Win NT & 2000

Used output format : User Defined Encoder
Selected bitrate : 1024 kBit/s
Quality : High
Add ID3 tag : No
Command line compressor : C:\Program Files (x86)\Exact Audio Copy\Flac\flac.exe
Additional command line options : -V -8 -T “Genre=%genre%” -T “Artist=%artist%” -T “Title=%title%” -T “Album=%albumtitle%” -T “Date=%year%” -T “Tracknumber=%tracknr%” -T “Comment=%comment%” %source%

TOC of the extracted CD

Track | Start | Length | Start sector | End sector
———————————————————
1 | 0:00.00 | 4:06.17 | 0 | 18466
2 | 4:06.17 | 3:38.53 | 18467 | 34869
3 | 7:44.70 | 3:50.05 | 34870 | 52124
4 | 11:35.00 | 4:21.50 | 52125 | 71749
5 | 15:56.50 | 4:31.52 | 71750 | 92126
6 | 20:28.27 | 4:53.73 | 92127 | 114174
7 | 25:22.25 | 4:05.42 | 114175 | 132591
8 | 29:27.67 | 3:41.30 | 132592 | 149196
9 | 33:09.22 | 3:58.33 | 149197 | 167079
10 | 37:07.55 | 3:38.57 | 167080 | 183486

Range status and errors

Selected range

Filename E:\Torrent\Ginger Devil\Heart\1987 – Bad Animals (SHM-CD) (UICY-25532)\Heart – Bad Animals (UICY-25532).wav

Peak level 100.0 %
Extraction speed 5.2 X
Range quality 99.9 %
Test CRC A1656514
Copy CRC A1656514
Copy OK

No errors occurred

AccurateRip summary

Track 1 cannot be verified as accurate (confidence 13) [6B75DF7E], AccurateRip returned [E2256302] (AR v2)
Track 2 cannot be verified as accurate (confidence 13) [88D4ACFF], AccurateRip returned [50FE45F7] (AR v2)
Track 3 cannot be verified as accurate (confidence 13) [4D30C701], AccurateRip returned [859B394B] (AR v2)
Track 4 cannot be verified as accurate (confidence 13) [F9270F21], AccurateRip returned [BE9AA0A1] (AR v2)
Track 5 cannot be verified as accurate (confidence 13) [0B641D1A], AccurateRip returned [167E5099] (AR v2)
Track 6 cannot be verified as accurate (confidence 13) [E05FA264], AccurateRip returned [99A1E8AA] (AR v2)
Track 7 cannot be verified as accurate (confidence 13) [F6880F14], AccurateRip returned [5F8B3C42] (AR v2)
Track 8 cannot be verified as accurate (confidence 13) [7BFFD909], AccurateRip returned [BA90F7CA] (AR v2)
Track 9 cannot be verified as accurate (confidence 13) [C5AD9B6D], AccurateRip returned [85D37296] (AR v2)
Track 10 cannot be verified as accurate (confidence 13) [E8B1FF2A], AccurateRip returned [C55AB2BF] (AR v2)

No tracks could be verified as accurate
You may have a different pressing from the one(s) in the database

End of status report

—- CUETools DB Plugin V2.1.6

[CTDB TOCID: 4UUuuy56haK94Wo3O_QJWSkEpqo-] found
Submit result: 4UUuuy56haK94Wo3O_QJWSkEpqo- has been confirmed
Track | CTDB Status
1 | (67/69) Accurately ripped
2 | (68/69) Accurately ripped
3 | (68/69) Accurately ripped
4 | (69/69) Accurately ripped
5 | (67/69) Accurately ripped
6 | (69/69) Accurately ripped
7 | (69/69) Accurately ripped
8 | (69/69) Accurately ripped
9 | (69/69) Accurately ripped
10 | (69/69) Accurately ripped

==== Log checksum 984363E06072554DB3DA93310DB5FA7C85E0616EDBD30FF368E95CC7222A2DA4 ====

REM GENRE Rock
REM DATE 1987/2015
REM DISCID 98098E0A
REM COMMENT “ExactAudioCopy v1.3”
CATALOG 0000000000000
PERFORMER “Heart”
TITLE “Bad Animals (UICY-25532)”
REM COMPOSER “Heart”
FILE “Heart – Bad Animals (UICY-25532).flac” WAVE
TRACK 01 AUDIO
TITLE “Who Will You Run To”
PERFORMER “Heart”
REM COMPOSER “Heart”
ISRC USB328600003
INDEX 01 00:00:00
TRACK 02 AUDIO
TITLE “Alone”
PERFORMER “Heart”
REM COMPOSER “Heart”
ISRC USB328700690
INDEX 01 04:06:17
TRACK 03 AUDIO
TITLE “There’s The Girl”
PERFORMER “Heart”
REM COMPOSER “Heart”
ISRC USB328700687
INDEX 01 07:44:70
TRACK 04 AUDIO
TITLE “I Want You So Bad”
PERFORMER “Heart”
REM COMPOSER “Heart”
ISRC USB328700688
INDEX 01 11:35:00
TRACK 05 AUDIO
TITLE “Wait For An Answer”
PERFORMER “Heart”
REM COMPOSER “Heart”
ISRC USB328700689
INDEX 00 15:56:20
INDEX 01 15:56:50
TRACK 06 AUDIO
TITLE “Bad Animals”
PERFORMER “Heart”
REM COMPOSER “Heart”
ISRC USB328700691
INDEX 00 20:26:15
INDEX 01 20:28:27
TRACK 07 AUDIO
TITLE “You Ain’t So Tough”
PERFORMER “Heart”
REM COMPOSER “Heart”
ISRC USB328700692
INDEX 01 25:22:25
TRACK 08 AUDIO
TITLE “Strangers Of The Heart”
PERFORMER “Heart”
REM COMPOSER “Heart”
ISRC USB328700693
INDEX 01 29:27:67
TRACK 09 AUDIO
TITLE “Easy Target”
PERFORMER “Heart”
REM COMPOSER “Heart”
ISRC USB328700694
INDEX 00 33:08:37
INDEX 01 33:09:22
TRACK 10 AUDIO
TITLE “RSVP”
PERFORMER “Heart”
REM COMPOSER “Heart”
ISRC USB328700695
INDEX 00 37:07:17
INDEX 01 37:07:55


Leave a Reply

Your email address will not be published. Required fields are marked *

This site uses Akismet to reduce spam. Learn how your comment data is processed.