Heart – Alive In Seattle




[Total: 0    Average: 0/5]

Artist: Heart
Year: 2003
Genre: Rock
Notes: Discogs
Add. Notes:
Cover incl.: Yes
Encoder: FLAC
Bitrate: ~900 kBit/s (44.1 kHz/16 Bit/s)
Log & Cue incl.: Yes
Size: 704 MB
Password: “slam” (without ” “)


All Downloads/Hosters are compatible

Download 1
Share-online.biz
KatFile.com
Rapidgator.net
Mexa.sh
Download 2
Share-online.biz
KatFile.com
Rapidgator.net
Mexa.sh

Tracklist:

1-1 - Crazy On You - 5:03
1-2 - Sister Wild Rose - 3:29
1-3 - The Witch - 2:59
1-4 - Straight On - 5:22
1-5 - These Dreams - 5:38
1-6 - Mistral Wind - 7:39
1-7 - Alone - 4:58
1-8 - Dog And Butterfly - 6:16
1-9 - Mona Lisa And Mad Hatters - 
5:50
1-10 - Battle Of Evermore - 5:50

2-1 - Heaven - 5:51
2-2 - Magic Man - 6:00
2-3 - Two Faces Of Eve - 4:16
2-4 - Love Alive - 5:52
2-5 - Break The Rock - 3:54
2-6 - Barracuda - 6:10
2-7 - Wild Child - 4:37
2-8 - Black Dog - 6:12
2-9 - Dreamboat Annie (Reprise) - 
3:27

EAC-Log, CUE-Sheed & NFO:

Click to open spoiler
Exact Audio Copy V1.1 from 23. June 2015

EAC extraction logfile from 10. April 2016, 22:33

Heart / Alive In Seattle

Used drive : ASUS DRW-24B1ST Adapter: 1 ID: 1

Read mode : Secure
Utilize accurate stream : Yes
Defeat audio cache : Yes
Make use of C2 pointers : No

Read offset correction : 6
Overread into Lead-In and Lead-Out : No
Fill up missing offset samples with silence : Yes
Delete leading and trailing silent blocks : No
Null samples used in CRC calculations : Yes
Used interface : Native Win32 interface for Win NT & 2000

Used output format : User Defined Encoder
Selected bitrate : 1024 kBit/s
Quality : High
Add ID3 tag : No
Command line compressor : C:\Program Files (x86)\Exact Audio Copy\Flac\flac.exe
Additional command line options : -V -8 -T “Date=%year%” -T “Genre=%genre%” %source%

TOC of the extracted CD

Track | Start | Length | Start sector | End sector
———————————————————
1 | 0:00.00 | 5:03.60 | 0 | 22784
2 | 5:03.60 | 3:28.62 | 22785 | 38446
3 | 8:32.47 | 2:59.13 | 38447 | 51884
4 | 11:31.60 | 5:21.47 | 51885 | 76006
5 | 16:53.32 | 5:38.25 | 76007 | 101381
6 | 22:31.57 | 7:39.15 | 101382 | 135821
7 | 30:10.72 | 4:58.03 | 135822 | 158174
8 | 35:09.00 | 6:15.72 | 158175 | 186371
9 | 41:24.72 | 5:50.38 | 186372 | 212659
10 | 47:15.35 | 5:49.65 | 212660 | 238899

Range status and errors

Selected range

Filename E:\Torrent\# MY\Heart – Discography\2003 – Alive In Seattle (Epic, EPC 517327 2, Austria)\CD-1\Heart – Alive In Seattle (CD-1).wav

Peak level 99.8 %
Extraction speed 5.5 X
Range quality 100.0 %
Test CRC 7E08E17A
Copy CRC 7E08E17A
Copy OK

No errors occurred

AccurateRip summary

Track 1 cannot be verified as accurate (confidence 31) [0EE3B186], AccurateRip returned [84769FF6] (AR v2)
Track 2 cannot be verified as accurate (confidence 31) [940449A2], AccurateRip returned [03ED75B1] (AR v2)
Track 3 cannot be verified as accurate (confidence 31) [192F7E9A], AccurateRip returned [82268325] (AR v2)
Track 4 cannot be verified as accurate (confidence 31) [9BCF0AF9], AccurateRip returned [A857CF5C] (AR v2)
Track 5 cannot be verified as accurate (confidence 31) [1AA4C001], AccurateRip returned [390DFC44] (AR v2)
Track 6 cannot be verified as accurate (confidence 31) [C6855EA0], AccurateRip returned [021AC231] (AR v2)
Track 7 cannot be verified as accurate (confidence 31) [2A3E750D], AccurateRip returned [C238BD59] (AR v2)
Track 8 cannot be verified as accurate (confidence 31) [2A2B902F], AccurateRip returned [3D198E96] (AR v2)
Track 9 cannot be verified as accurate (confidence 31) [2E09ADBB], AccurateRip returned [F4A8336A] (AR v2)
Track 10 cannot be verified as accurate (confidence 30) [9A63CD60], AccurateRip returned [AC35C179] (AR v2)

No tracks could be verified as accurate
You may have a different pressing from the one(s) in the database

End of status report

—- CUETools DB Plugin V2.1.6

[CTDB TOCID: U.4xmhl4IlrJfDIJnVkLPEQ6wp8-] found
Submit result: U.4xmhl4IlrJfDIJnVkLPEQ6wp8- has been confirmed
Track | CTDB Status
1 | (24/24) Accurately ripped
2 | (24/24) Accurately ripped
3 | (24/24) Accurately ripped
4 | (24/24) Accurately ripped
5 | (24/24) Accurately ripped
6 | (24/24) Accurately ripped
7 | (24/24) Accurately ripped
8 | (24/24) Accurately ripped
9 | (24/24) Accurately ripped
10 | (24/24) Accurately ripped

==== Log checksum 6F6F68F439DAC6FD0FF6CADA1471F074CDCC6A92609CF5C3B745CB68B73FF03A ====

Exact Audio Copy V1.1 from 23. June 2015

EAC extraction logfile from 10. April 2016, 23:09

Heart / Alive In Seattle

Used drive : ASUS DRW-24B1ST Adapter: 1 ID: 1

Read mode : Secure
Utilize accurate stream : Yes
Defeat audio cache : Yes
Make use of C2 pointers : No

Read offset correction : 6
Overread into Lead-In and Lead-Out : No
Fill up missing offset samples with silence : Yes
Delete leading and trailing silent blocks : No
Null samples used in CRC calculations : Yes
Used interface : Native Win32 interface for Win NT & 2000

Used output format : User Defined Encoder
Selected bitrate : 1024 kBit/s
Quality : High
Add ID3 tag : No
Command line compressor : C:\Program Files (x86)\Exact Audio Copy\Flac\flac.exe
Additional command line options : -V -8 -T “Date=%year%” -T “Genre=%genre%” %source%

TOC of the extracted CD

Track | Start | Length | Start sector | End sector
———————————————————
1 | 0:00.00 | 5:51.20 | 0 | 26344
2 | 5:51.20 | 6:00.10 | 26345 | 53354
3 | 11:51.30 | 4:16.22 | 53355 | 72576
4 | 16:07.52 | 5:52.65 | 72577 | 99041
5 | 22:00.42 | 3:54.48 | 99042 | 116639
6 | 25:55.15 | 6:10.32 | 116640 | 144421
7 | 32:05.47 | 4:37.13 | 144422 | 165209
8 | 36:42.60 | 6:12.20 | 165210 | 193129
9 | 42:55.05 | 3:27.12 | 193130 | 208666

Range status and errors

Selected range

Filename E:\Torrent\# MY\Heart – Discography\2003 – Alive In Seattle (Epic, EPC 517327 2, Austria)\CD-2\Heart – Alive In Seattle (CD-2).wav

Peak level 100.0 %
Extraction speed 2.9 X
Range quality 100.0 %
Test CRC 37B01E1C
Copy CRC 37B01E1C
Copy OK

No errors occurred

AccurateRip summary

Track 1 cannot be verified as accurate (confidence 31) [F5A4588C], AccurateRip returned [B682F85F] (AR v2)
Track 2 cannot be verified as accurate (confidence 31) [7FC69E8A], AccurateRip returned [80D4844D] (AR v2)
Track 3 cannot be verified as accurate (confidence 31) [A4C83C1F], AccurateRip returned [9335A64E] (AR v2)
Track 4 cannot be verified as accurate (confidence 31) [8888834E], AccurateRip returned [D044DC74] (AR v2)
Track 5 cannot be verified as accurate (confidence 31) [2F231B3C], AccurateRip returned [D40BF105] (AR v2)
Track 6 cannot be verified as accurate (confidence 31) [31A11A59], AccurateRip returned [EAEE3DA2] (AR v2)
Track 7 cannot be verified as accurate (confidence 31) [11C16C16], AccurateRip returned [ACB68BB8] (AR v2)
Track 8 cannot be verified as accurate (confidence 31) [E999AA43], AccurateRip returned [1E15C442] (AR v2)
Track 9 cannot be verified as accurate (confidence 31) [30FDC96C], AccurateRip returned [653C8929] (AR v2)

No tracks could be verified as accurate
You may have a different pressing from the one(s) in the database

End of status report

—- CUETools DB Plugin V2.1.6

[CTDB TOCID: KeRqjTWT1krrpuAZPYDZ7IYjdWQ-] found
Submit result: KeRqjTWT1krrpuAZPYDZ7IYjdWQ- has been confirmed
Track | CTDB Status
1 | (23/23) Accurately ripped
2 | (23/23) Accurately ripped
3 | (23/23) Accurately ripped
4 | (23/23) Accurately ripped
5 | (23/23) Accurately ripped
6 | (23/23) Accurately ripped
7 | (23/23) Accurately ripped
8 | (23/23) Accurately ripped
9 | (23/23) Accurately ripped

==== Log checksum 07370E2E763B17A4D0E9048EA87FB06313CF8FFD13B67B68929CCFC48C80470A ====

REM GENRE “Hard Rock”
REM DATE 2003
REM DISCID 720C710A
REM COMMENT “ExactAudioCopy v1.1”
CATALOG 5099751732723
PERFORMER “Heart”
TITLE “Alive In Seattle”
FILE “Heart – Alive In Seattle (CD-1).flac” WAVE
TRACK 01 AUDIO
TITLE “Crazy On You”
PERFORMER “Heart”
ISRC USSM10305200
INDEX 01 00:00:00
TRACK 02 AUDIO
TITLE “Sister Wild Rose”
PERFORMER “Heart”
ISRC USSM10305201
INDEX 01 05:03:60
TRACK 03 AUDIO
TITLE “The Witch”
PERFORMER “Heart”
ISRC USSM10305202
INDEX 01 08:32:47
TRACK 04 AUDIO
TITLE “Straight On”
PERFORMER “Heart”
ISRC USSM10305203
INDEX 01 11:31:60
TRACK 05 AUDIO
TITLE “These Dreams”
PERFORMER “Heart”
ISRC USSM10305204
INDEX 01 16:53:32
TRACK 06 AUDIO
TITLE “Mistral Wind”
PERFORMER “Heart”
ISRC USSM10305205
INDEX 01 22:31:57
TRACK 07 AUDIO
TITLE “Alone”
PERFORMER “Heart”
ISRC USSM10305206
INDEX 01 30:10:72
TRACK 08 AUDIO
TITLE “Dog & Butterfly”
PERFORMER “Heart”
ISRC USSM10305207
INDEX 01 35:09:00
TRACK 09 AUDIO
TITLE “Mona Lisas And Mad Hatters”
PERFORMER “Heart”
ISRC USSM10305208
INDEX 01 41:24:72
TRACK 10 AUDIO
TITLE “The Battle Of Evermore”
PERFORMER “Heart”
ISRC USSM10305209
INDEX 01 47:15:35

REM GENRE “Hard Rock”
REM DATE 2003
REM DISCID 7A0ADE09
REM COMMENT “ExactAudioCopy v1.1”
CATALOG 5099751732723
PERFORMER “Heart”
TITLE “Alive In Seattle”
FILE “Heart – Alive In Seattle (CD-2).flac” WAVE
TRACK 01 AUDIO
TITLE “Heaven”
PERFORMER “Heart”
ISRC USSM10305210
INDEX 01 00:00:00
TRACK 02 AUDIO
TITLE “Magic Man”
PERFORMER “Heart”
ISRC USSM10305211
INDEX 01 05:51:20
TRACK 03 AUDIO
TITLE “Two Faces Of Eve”
PERFORMER “Heart”
ISRC USSM10305212
INDEX 01 11:51:30
TRACK 04 AUDIO
TITLE “Love Alive”
PERFORMER “Heart”
ISRC USSM10305212
INDEX 01 16:07:52
TRACK 05 AUDIO
TITLE “Break The Rock”
PERFORMER “Heart”
ISRC USSM10305214
INDEX 01 22:00:42
TRACK 06 AUDIO
TITLE “Barracuda”
PERFORMER “Heart”
ISRC USSM10305215
INDEX 01 25:55:15
TRACK 07 AUDIO
TITLE “Wild Child”
PERFORMER “Heart”
ISRC USSM10305216
INDEX 01 32:05:47
TRACK 08 AUDIO
TITLE “Black Dog”
PERFORMER “Heart”
ISRC USSM10305217
INDEX 01 36:42:60
TRACK 09 AUDIO
TITLE “Dreamboat Annie (Reprise)”
PERFORMER “Heart”
ISRC USSM10305217
INDEX 01 42:55:05


Spread the Download

Leave a Reply

Your email address will not be published. Required fields are marked *

Enter the text from the image below
 

This site uses Akismet to reduce spam. Learn how your comment data is processed.