Hawkwind – The Machine Stops




Artist: Hawkwind
Year: 2016
Genre: Rock
Notes: Discogs
Add. Notes:
Cover incl.: Yes
Encoder: FLAC
Bitrate: ~900 kBit/s (44.1 kHz/16 Bit/s)
Log & Cue incl.: Yes
Size: 404,29 MB
Password: “slam” (without ” “)


All Downloads/Hosters are compatible

Download 1
Turbobit.net
Rapidgator.net
UploadEver.com
KatFile.com
UsersDrive.com
Download 2
Turbobit.net
Rapidgator.net
UploadEver.com
KatFile.com
UsersDrive.com
Download 3
Turbobit.net
Rapidgator.net
UploadEver.com
KatFile.com
UsersDrive.com

Tracklist:

1 - All Hail The Machine - 3:23
2 - The Machine - 4:38
3 - Katie - 0:55
4 - King Of The World - 2:51
5 - In My Room - 3:42
6 - Thursday - 4:09
7 - Synchronized Blue - 5:24
8 - Hexagone - 4:51
9 - Living On Earth - 6:27
10 - The Harmonic Hall - 4:55
11 - Yum-Yum - 1:03
12 - A Solitary Man - 5:03
13 - Tube - 4:28
14 - Lost In Science - 6:32

EAC-Log, CUE-Sheed & NFO:

Click to open spoiler
foobar2000 1.3.8 / Dynamic Range Meter 1.1.1
log date: 2016-04-14 18:49:26

——————————————————————————–
Analyzed: Hawkwind / The Machine Stops
——————————————————————————–

DR Peak RMS Duration Track
——————————————————————————–
DR7 -1.20 dB -9.95 dB 3:24 01-All Hail the Machine
DR9 -0.05 dB -10.40 dB 4:39 02-The Machine
DR10 -2.64 dB -16.01 dB 0:56 03-Katie
DR8 -0.05 dB -9.56 dB 2:51 04-King of the World
DR8 -0.10 dB -13.94 dB 3:43 05-In My Room
DR9 -0.10 dB -12.25 dB 4:09 06-Thursday
DR8 -0.10 dB -9.56 dB 5:24 07-Synchronised Blue
DR5 -0.10 dB -7.36 dB 4:52 08-Hexagone
DR8 -0.70 dB -10.21 dB 6:27 09-Living on Earth
DR9 -0.10 dB -11.22 dB 4:56 10-The Harmonic Hall
DR11 -0.58 dB -15.75 dB 1:04 11-Yum Yum
DR8 -0.05 dB -9.25 dB 5:03 12-A Solitary Man
DR8 -0.05 dB -11.16 dB 4:28 13-Tube
DR10 -0.15 dB -14.01 dB 6:33 14-Lost in Science
——————————————————————————–

Number of tracks: 14
Official DR value: DR8

Samplerate: 44100 Hz
Channels: 2
Bits per sample: 16
Bitrate: 884 kbps
Codec: FLAC
================================================================================

———————–

DON’T MODIFY THIS FILE

———————–

PERFORMER: auCDtect Task Manager, ver. 1.5.1RC6 build 1.5.1.7
Copyright (c) 2008-2010 y-soft. All rights reserved
http://y-soft.org

ANALYZER: auCDtect: CD records authenticity detector, version 0.8.2
Copyright (c) 2004 Oleg Berngardt. All rights reserved.
Copyright (c) 2004 Alexander Djourik. All rights reserved.

FILE: 01 – All Hail the Machine.flac
Size: 25128825 Hash: C74F3477478469B6FFB5EE41189670B6 Accuracy: -m8
Conclusion: CDDA 100%
Signature: 88CCF6DA6C7E4499680A79B89D812EC12AA3F12C
FILE: 02 – The Machine.flac
Size: 37571507 Hash: 344987F4C2D22DF8A52756ADB2CFC69C Accuracy: -m8
Conclusion: CDDA 100%
Signature: 8D74CDCAEA1B0B1A286E7860D23FCB4D87A2112A
FILE: 03 – Katie.flac
Size: 5653612 Hash: 54104D79AD04FE62612DE636DBCD7B9F Accuracy: -m8
Conclusion: CDDA 100%
Signature: E772F35A85F1012F099E2B8EC1398E11A97A5B3B
FILE: 04 – King of the World.flac
Size: 20905065 Hash: 66E955CD4592BC11693406110741731E Accuracy: -m8
Conclusion: CDDA 100%
Signature: D6428607D4FF56A5F7B45BA98BC2A5324CCFA4A9
FILE: 05 – In My Room.flac
Size: 23606519 Hash: 62ECE1FC50554B1C305744FB1FF0B323 Accuracy: -m8
Conclusion: CDDA 100%
Signature: 4AB731AC4BCC378525AF79F63B05D550521512E3
FILE: 06 – Thursday.flac
Size: 29498355 Hash: B2770618749C01BB8CBCB0B67416C012 Accuracy: -m8
Conclusion: CDDA 100%
Signature: E95DC2211C860BEE49B82DEC7DB2CE01A59792FA
FILE: 07 – Synchronised Blue.flac
Size: 44103453 Hash: 4FDEBD14D355669CBC40C52DC9093FBE Accuracy: -m8
Conclusion: CDDA 100%
Signature: 066911DAE3D4EB84700201D56675AB194B3C1F78
FILE: 08 – Hexagone.flac
Size: 32220502 Hash: 2F83F53E0EEF530A1B23EFE2276FC3A9 Accuracy: -m8
Conclusion: CDDA 100%
Signature: 8F371EF26D1A3EC7694A389D7334F48234D0DB86
FILE: 09 – Living on Earth.flac
Size: 50130423 Hash: E51B3D64CA08529AB2064C079A143C12 Accuracy: -m8
Conclusion: CDDA 100%
Signature: 1332BCE876B452286BB15959B95C71A8FA60D04A
FILE: 10 – The Harmonic Hall.flac
Size: 34907972 Hash: 3D2962576570B08745DB5D6D64597C52 Accuracy: -m8
Conclusion: CDDA 100%
Signature: 508948D78077773DD468ACA0CEE923FCC8AFCD9C
FILE: 11 – Yum Yum.flac
Size: 5311398 Hash: 3A5FF7D2C324F8CEAAE4B1E9912A0A7D Accuracy: -m8
Conclusion: CDDA 100%
Signature: 7ACA69C3C617AD96C913CD8A3640AF58104503FC
FILE: 12 – A Solitary Man.flac
Size: 38800381 Hash: 975AAEE16B08D6F442DC023062339E3C Accuracy: -m8
Conclusion: CDDA 100%
Signature: 397458845D2B71F705BE6887AA599CE2206CDD88
FILE: 13 – Tube.flac
Size: 32109877 Hash: 90CCDAB53FEF1514B8C6FFF915DEF7FE Accuracy: -m8
Conclusion: CDDA 100%
Signature: 3C145F754FEBF774F336A6EBE3589F9AA76A8B96
FILE: 14 – Lost in Science.flac
Size: 43512001 Hash: 67BBF1AAFF1EF0284ECDAAB83ABFCE4F Accuracy: -m8
Conclusion: CDDA 100%
Signature: D29D354FACFD1461E1D90356BE0203A7A0FE05C7


Leave a Reply

Your email address will not be published. Required fields are marked *

This site uses Akismet to reduce spam. Learn how your comment data is processed.