Hatebreed – Under The Knife




Artist: Hatebreed
Year: 1996
Genre: Rock
Notes: Discogs
Add. Notes:
Cover incl.: Yes
Encoder: FLAC
Bitrate: ~1000 kBit/s (44.1 kHz/16 Bit/s)
Log & Cue incl.: Yes
Size: 101,3 MB
Password: “slam” (without ” “)


All Downloads/Hosters are compatible

Download 1
Turbobit.net
Rapidgator.net
KatFile.com
UsersDrive.com
CloudShare.to
Download 2
Turbobit.net
Rapidgator.net
KatFile.com
UsersDrive.com
CloudShare.to
Download 3
Turbobit.net
Rapidgator.net
KatFile.com
UsersDrive.com
CloudShare.to

Tracklist:

1 - Smash Your Enemies - 2:10
2 - Kill An Addict - 1:04
3 - Under The Knife - 1:34
4 - Filth - 1:45
5 - Not One Truth - 2:10
6 - Severed - 2:41
7 - Puritan - 3:07

EAC-Log, CUE-Sheed & NFO:

Click to open spoiler
Exact Audio Copy V0.99 prebeta 4 from 23. January 2008

EAC extraction logfile from 23. December 2008, 14:00

Hatebreed / Under The Knife

Used drive : HL-DT-STDVD-ROM GDR8163B Adapter: 0 ID: 1

Read mode : Secure
Utilize accurate stream : Yes
Defeat audio cache : Yes
Make use of C2 pointers : No

Read offset correction : 102
Overread into Lead-In and Lead-Out : No
Fill up missing offset samples with silence : Yes
Delete leading and trailing silent blocks : No
Null samples used in CRC calculations : Yes
Used interface : Native Win32 interface for Win NT & 2000

Used output format : User Defined Encoder
Selected bitrate : 128 kBit/s
Quality : High
Add ID3 tag : No
Command line compressor : D:\Program Files\Exact Audio Copy\Flac\flac.exe
Additional command line options : -V -8 -T “artist=%a” -T “title=%t” -T “album=%g” -T “date=%y” -T “tracknumber=%n” -T “genre=%m” %s

TOC of the extracted CD

Track | Start | Length | Start sector | End sector
———————————————————
1 | 0:00.00 | 2:12.10 | 0 | 9909
2 | 2:12.10 | 1:02.19 | 9910 | 14578
3 | 3:14.29 | 1:33.35 | 14579 | 21588
4 | 4:47.64 | 1:42.64 | 21589 | 29302
5 | 6:30.53 | 2:09.51 | 29303 | 39028
6 | 8:40.29 | 2:40.57 | 39029 | 51085
7 | 11:21.11 | 3:07.22 | 51086 | 65132

Range status and errors

Selected range

Filename C:\Hatebreed\Hatebreed – Under The Knife.wav

Peak level 100.0 %
Range quality 100.0 %
Test CRC 6BC90953
Copy CRC 6BC90953
Copy OK

No errors occurred

AccurateRip summary

Track 1 accurately ripped (confidence 3) [1F4DD505]
Track 2 accurately ripped (confidence 3) [495C97CA]
Track 3 accurately ripped (confidence 3) [053D1806]
Track 4 accurately ripped (confidence 3) [2488572A]
Track 5 accurately ripped (confidence 3) [4058DC52]
Track 6 accurately ripped (confidence 3) [81335EB9]
Track 7 accurately ripped (confidence 3) [3C2D11F1]

All tracks accurately ripped

End of status report

REM GENRE Hardcore
REM DATE 1996
REM DISCID 55036407
REM COMMENT ExactAudioCopy v0.99pb4
PERFORMER “Hatebreed”
TITLE “Under The Knife”
FILE “Hatebreed – Under The Knife.flac” WAVE
TRACK 01 AUDIO
TITLE “Smash Your Enemies”
INDEX 01 00:00:00
TRACK 02 AUDIO
TITLE “Kill An Addict”
INDEX 01 02:12:10
TRACK 03 AUDIO
TITLE “Under The Knife”
INDEX 01 03:14:29
TRACK 04 AUDIO
TITLE “Filth”
INDEX 01 04:47:64
TRACK 05 AUDIO
TITLE “Not One Truth”
INDEX 01 06:30:53
TRACK 06 AUDIO
TITLE “Severed”
INDEX 01 08:40:29
TRACK 07 AUDIO
TITLE “Puritan”
INDEX 01 11:21:11

Leave a Reply

Your email address will not be published. Required fields are marked *

Enter the text from the image below
 

This site uses Akismet to reduce spam. Learn how your comment data is processed.