Hatebreed – The Rise Of Brutality




Artist: Hatebreed
Year: 2003
Genre: Metal
Notes: Discogs
Add. Notes:
Cover incl.: Yes
Encoder: FLAC
Bitrate: ~1100 kBit/s (44.1 kHz/16 Bit/s)
Log & Cue incl.: Yes
Size: 259,19 MB
Password: “slam” (without ” “)


All Downloads/Hosters are compatible

Download 1
Turbobit.net
Rapidgator.net
UploadEver.com
KatFile.com
UsersDrive.com
Download 2
Turbobit.net
Rapidgator.net
UploadEver.com
KatFile.com
UsersDrive.com
Download 3
Turbobit.net
Rapidgator.net
UploadEver.com
KatFile.com
UsersDrive.com

Tracklist:

1 - Tear It Down - 1:47
2 - Straight To Your Face - 2:17
3 - Facing What Consumes You - 3:29
4 - Live For This - 2:49
5 - Doomsayer - 3:22
6 - Another Day, Another Vendetta - 3:03
7 - A Lesson Lived Is A Lesson Learned - 2:03
8 - Beholder Of Justice - 2:44
9 - This Is Now - 3:36
10 - Voice Of Contention - 2:27
11 - Choose Or Be Chosen - 1:39
12 - Confide In No One - 2:38

EAC-Log, CUE-Sheed & NFO:

Click to open spoiler
Exact Audio Copy V0.99 prebeta 3 from 28. July 2007

EAC extraction logfile from 23. December 2007, 17:16

Hatebreed / The Rise Of Brutality

Used drive : MATSHITAUJ-840D Adapter: 1 ID: 0

Read mode : Secure
Utilize accurate stream : Yes
Defeat audio cache : Yes
Make use of C2 pointers : No

Read offset correction : 102
Overread into Lead-In and Lead-Out : No
Fill up missing offset samples with silence : Yes
Delete leading and trailing silent blocks : No
Null samples used in CRC calculations : Yes
Used interface : Installed external ASPI interface

Used output format : User Defined Encoder
Selected bitrate : 192 kBit/s
Quality : High
Add ID3 tag : No
Command line compressor : C:\Program Files\Exact Audio Copy\flac.exe
Additional command line options : -8 -A tukey(0.25) -A gauss(0.1875) -b 4096 -V -T “artist=%a” -T “title=%t” -T “album=%g” -T “date=%y” -T “tracknumber=%n” -T “genre=%m” %s –sector-align

TOC of the extracted CD

Track | Start | Length | Start sector | End sector
———————————————————
1 | 0:00.00 | 1:47.59 | 0 | 8083
2 | 1:47.59 | 2:17.30 | 8084 | 18388
3 | 4:05.14 | 3:29.30 | 18389 | 34093
4 | 7:34.44 | 2:50.14 | 34094 | 46857
5 | 10:24.58 | 3:23.10 | 46858 | 62092
6 | 13:47.68 | 3:04.21 | 62093 | 75913
7 | 16:52.14 | 2:03.64 | 75914 | 85202
8 | 18:56.03 | 2:44.15 | 85203 | 97517
9 | 21:40.18 | 3:36.60 | 97518 | 113777
10 | 25:17.03 | 2:27.52 | 113778 | 124854
11 | 27:44.55 | 1:39.01 | 124855 | 132280
12 | 29:23.56 | 2:38.63 | 132281 | 144193

Range status and errors

Selected range

Filename C:\Documents and Settings\Owner\My Documents\My Music\Flac Rips\Hatebreed\Hatebreed – The Rise Of Brutality.wav

Peak level 100.0 %
Range quality 100.0 %
Test CRC 728FDA29
Copy CRC 728FDA29
Copy OK

No errors occurred

AccurateRip summary

Track 1 accurately ripped (confidence 31) [48D71CA3]
Track 2 accurately ripped (confidence 32) [AEFB4DBE]
Track 3 accurately ripped (confidence 32) [7ADA2564]
Track 4 accurately ripped (confidence 32) [DA7F1BAD]
Track 5 accurately ripped (confidence 32) [F43795E7]
Track 6 accurately ripped (confidence 32) [B495E21D]
Track 7 accurately ripped (confidence 32) [17346020]
Track 8 accurately ripped (confidence 32) [CC9F61D9]
Track 9 accurately ripped (confidence 32) [C9015549]
Track 10 accurately ripped (confidence 32) [A1CCEC1E]
Track 11 accurately ripped (confidence 32) [80F11BAC]
Track 12 accurately ripped (confidence 32) [23D6CCF6]

All tracks accurately ripped

End of status report

REM GENRE “Hardcore”
REM DATE 2003
REM DISCID 9807820C
REM COMMENT “ExactAudioCopy v0.99pb4”
PERFORMER “Hatebreed”
TITLE “The Rise Of Brutality”
FILE “Hatebreed – The Rise Of Brutality.flac” WAVE
TRACK 01 AUDIO
TITLE “Tear It Down”
PERFORMER “Hatebreed”
INDEX 01 00:00:00
TRACK 02 AUDIO
TITLE “Straight To Your Face”
PERFORMER “Hatebreed”
INDEX 01 01:47:59
TRACK 03 AUDIO
TITLE “Facing What Consumes You”
PERFORMER “Hatebreed”
INDEX 01 04:05:14
TRACK 04 AUDIO
TITLE “Live For This”
PERFORMER “Hatebreed”
INDEX 01 07:34:44
TRACK 05 AUDIO
TITLE “Doomsayer”
PERFORMER “Hatebreed”
INDEX 00 10:24:31
INDEX 01 10:24:58
TRACK 06 AUDIO
TITLE “Another Day Another Vendetta”
PERFORMER “Hatebreed”
INDEX 00 13:47:28
INDEX 01 13:47:68
TRACK 07 AUDIO
TITLE “A Lesson Lived Is A Lesson Learned”
PERFORMER “Hatebreed”
INDEX 00 16:51:13
INDEX 01 16:52:14
TRACK 08 AUDIO
TITLE “Beholder Of Justice”
PERFORMER “Hatebreed”
INDEX 01 18:56:03
TRACK 09 AUDIO
TITLE “This Is Now”
PERFORMER “Hatebreed”
INDEX 01 21:40:18
TRACK 10 AUDIO
TITLE “Voice Of Contention”
PERFORMER “Hatebreed”
INDEX 01 25:17:03
TRACK 11 AUDIO
TITLE “Choose Or Be Chosen”
PERFORMER “Hatebreed”
INDEX 00 27:44:04
INDEX 01 27:44:55
TRACK 12 AUDIO
TITLE “Confide In No One”
PERFORMER “Hatebreed”
INDEX 01 29:23:56

Leave a Reply

Your email address will not be published. Required fields are marked *

This site uses Akismet to reduce spam. Learn how your comment data is processed.