Hatebreed – The Divinity Of Purpose




Artist: Hatebreed
Year: 2013
Genre: Hardcore
Notes: Discogs
Add. Notes:
Cover incl.: Yes
Encoder: FLAC
Bitrate: ~1100 kBit/s (44.1 kHz/16 Bit/s)
Log & Cue incl.: Yes
Size: 373,98 MB
Password: “slam” (without ” “)


All Downloads/Hosters are compatible

Download 1
Turbobit.net
Rapidgator.net
UploadEver.com
KatFile.com
UsersDrive.com
Download 2
Turbobit.net
Rapidgator.net
UploadEver.com
KatFile.com
UsersDrive.com
Download 3
Turbobit.net
Rapidgator.net
UploadEver.com
KatFile.com
UsersDrive.com

Tracklist:

1 - Put It To The Torch - 2:10
2 - Honor Never Dies - 3:12
3 - Own Your World - 3:38
4 - The Language - 3:12
5 - Before The Fight Ends You - 3:17
6 - Indivisible - 2:55
7 - Dead Man Breathing - 3:18
8 - The Divinity Of Purpose - 3:39
9 - Nothing Scars Me - 3:06
10 - Bitter Truth - 2:40
11 - Boundless (Time To Murder It) - 3:22
12 - Idolized & Vilified - 2:22

EAC-Log, CUE-Sheed & NFO:

Click to open spoiler
Exact Audio Copy V1.0 beta 3 from 29. August 2011

EAC extraction logfile from 2. October 2015, 16:22

Hatebreed / The Divinity Of Purpose

Used drive : HL-DT-STBD-RE BT11F Adapter: 0 ID: 2

Read mode : Secure
Utilize accurate stream : Yes
Defeat audio cache : Yes
Make use of C2 pointers : No

Read offset correction : 667
Overread into Lead-In and Lead-Out : No
Fill up missing offset samples with silence : Yes
Delete leading and trailing silent blocks : No
Null samples used in CRC calculations : Yes
Used interface : Native Win32 interface for Win NT & 2000

Used output format : User Defined Encoder
Selected bitrate : 128 kBit/s
Quality : High
Add ID3 tag : No
Command line compressor : C:\Program Files (x86)\FLAC\flac.exe
Additional command line options : -V -8 -T “Genre=%genre%” -T “Artist=%artist%” -T “Title=%title%” -T “Album=%albumtitle%” -T “Date=%year%” -T “Tracknumber=%tracknr%” -T “Comment=%comment%” %source%

TOC of the extracted CD

Track | Start | Length | Start sector | End sector
———————————————————
1 | 0:00.00 | 2:12.11 | 0 | 9910
2 | 2:12.11 | 3:12.21 | 9911 | 24331
3 | 5:24.32 | 3:39.34 | 24332 | 40790
4 | 9:03.66 | 3:14.65 | 40791 | 55405
5 | 12:18.56 | 3:17.67 | 55406 | 70247
6 | 15:36.48 | 2:56.10 | 70248 | 83457
7 | 18:32.58 | 3:19.62 | 83458 | 98444
8 | 21:52.45 | 3:39.61 | 98445 | 114930
9 | 25:32.31 | 3:08.13 | 114931 | 129043
10 | 28:40.44 | 2:40.50 | 129044 | 141093
11 | 31:21.19 | 3:21.58 | 141094 | 156226
12 | 34:43.02 | 2:23.39 | 156227 | 166990

Range status and errors

Selected range

Filename D:\VovanKoperativ_Ripped_Music\Hatebreed – The Divinity Of Purpose (Razor & Tie ‎– 79301833882) (FLAC) (image)\Hatebreed – The Divinity Of Purpose.wav

Peak level 96.6 %
Extraction speed 3.7 X
Range quality 100.0 %
Test CRC 933268C8
Copy CRC 933268C8
Copy OK

No errors occurred

AccurateRip summary

Track 1 accurately ripped (confidence 11) [B8ABDAFB] (AR v2)
Track 2 accurately ripped (confidence 11) [225C46C5] (AR v2)
Track 3 accurately ripped (confidence 11) [70C07EAD] (AR v2)
Track 4 accurately ripped (confidence 11) [60812626] (AR v2)
Track 5 accurately ripped (confidence 11) [2318951B] (AR v2)
Track 6 accurately ripped (confidence 11) [9EAB96E5] (AR v2)
Track 7 accurately ripped (confidence 11) [C35B817F] (AR v2)
Track 8 accurately ripped (confidence 11) [FC83EFBC] (AR v2)
Track 9 accurately ripped (confidence 11) [CECE32FE] (AR v2)
Track 10 accurately ripped (confidence 11) [1A4D66C8] (AR v2)
Track 11 accurately ripped (confidence 11) [B41C92EB] (AR v2)
Track 12 accurately ripped (confidence 11) [C09B73AE] (AR v2)

All tracks accurately ripped

End of status report

==== Log checksum 5FF7F8790D2DD0E1BB18D1022C3A13E3980C7AAC59754993D81C955826CA6752 ====

REM GENRE Hardcore
REM DATE 2013
REM DISCID 8E08B20C
REM COMMENT “ExactAudioCopy v1.0b3”
PERFORMER “Hatebreed”
TITLE “The Divinity Of Purpose”
FILE “Hatebreed – The Divinity Of Purpose.flac” WAVE
TRACK 01 AUDIO
TITLE “Put It To The Torch”
PERFORMER “Hatebreed”
FLAGS DCP
INDEX 01 00:00:00
TRACK 02 AUDIO
TITLE “Honor Never Dies”
PERFORMER “Hatebreed”
FLAGS DCP
INDEX 01 02:12:11
TRACK 03 AUDIO
TITLE “Own Your World”
PERFORMER “Hatebreed”
FLAGS DCP
INDEX 01 05:24:32
TRACK 04 AUDIO
TITLE “The Language”
PERFORMER “Hatebreed”
FLAGS DCP
INDEX 01 09:03:66
TRACK 05 AUDIO
TITLE “Before The Fight”
PERFORMER “Hatebreed”
FLAGS DCP
INDEX 01 12:18:56
TRACK 06 AUDIO
TITLE “Indivisible”
PERFORMER “Hatebreed”
FLAGS DCP
INDEX 01 15:36:48
TRACK 07 AUDIO
TITLE “Dead Man Breathing”
PERFORMER “Hatebreed”
FLAGS DCP
INDEX 01 18:32:58
TRACK 08 AUDIO
TITLE “The Divinity Of Purpose”
PERFORMER “Hatebreed”
FLAGS DCP
INDEX 01 21:52:45
TRACK 09 AUDIO
TITLE “Nothing Scars Me”
PERFORMER “Hatebreed”
FLAGS DCP
INDEX 01 25:32:31
TRACK 10 AUDIO
TITLE “Bitter Truth”
PERFORMER “Hatebreed”
FLAGS DCP
INDEX 01 28:40:44
TRACK 11 AUDIO
TITLE “Boundless (Time To Murder It)”
PERFORMER “Hatebreed”
FLAGS DCP
INDEX 01 31:21:19
TRACK 12 AUDIO
TITLE “Idolized and Vilified”
PERFORMER “Hatebreed”
FLAGS DCP
INDEX 01 34:43:02


Leave a Reply

Your email address will not be published. Required fields are marked *

This site uses Akismet to reduce spam. Learn how your comment data is processed.