Hatebreed – The Concrete Confessional




Artist: Hatebreed
Year: 2016
Genre: Hardcore
Notes: Discogs
Add. Notes:
Cover incl.: Yes
Encoder: FLAC
Bitrate: ~1100 kBit/s (44.1 kHz/16 Bit/s)
Log & Cue incl.: Yes
Size: 339,39 MB
Password: “slam” (without ” “)


All Downloads/Hosters are compatible

Download 1
Turbobit.net
Rapidgator.net
KatFile.com
UploadRar.com
Download 2
Turbobit.net
Rapidgator.net
KatFile.com
UploadRar.com

Tracklist:

1 - A.D. - 2:50
2 - Looking Down The Barrel Of Today - 2:41
3 - Seven Enemies - 2:05
4 - In The Walls - 2:10
5 - From Grace We've Fallen - 2:41
6 - Us Against Us - 2:04
7 - Something's Off - 3:49
8 - Remember When - 2:40
9 - Slaughtered In Their Dreams - 2:16
10 - The Apex Within - 2:29
11 - Walking The Knife - 2:36
12 - Dissonance - 2:12
13 - Serve Your Masters - 2:55

EAC-Log, CUE-Sheed & NFO:

Click to open spoiler
Exact Audio Copy V1.1 from 23. June 2015

EAC extraction logfile from 22. May 2016, 5:16

Hatebreed / The Concrete Confessional

Used drive : HL-DT-STBD-RE BT11F Adapter: 1 ID: 0

Read mode : Secure
Utilize accurate stream : Yes
Defeat audio cache : Yes
Make use of C2 pointers : No

Read offset correction : 667
Overread into Lead-In and Lead-Out : No
Fill up missing offset samples with silence : Yes
Delete leading and trailing silent blocks : No
Null samples used in CRC calculations : Yes
Used interface : Native Win32 interface for Win NT & 2000

Used output format : User Defined Encoder
Selected bitrate : 128 kBit/s
Quality : High
Add ID3 tag : No
Command line compressor : C:\Program Files (x86)\FLAC\flac.exe
Additional command line options : -V -8 -T “Genre=%genre%” -T “Artist=%artist%” -T “Title=%title%” -T “Album=%albumtitle%” -T “Date=%year%” -T “Tracknumber=%tracknr%” -T “Comment=%comment%” %source%

TOC of the extracted CD

Track | Start | Length | Start sector | End sector
———————————————————
1 | 0:00.00 | 2:50.65 | 0 | 12814
2 | 2:50.65 | 2:41.47 | 12815 | 24936
3 | 5:32.37 | 2:05.37 | 24937 | 34348
4 | 7:37.74 | 2:10.21 | 34349 | 44119
5 | 9:48.20 | 2:41.21 | 44120 | 56215
6 | 12:29.41 | 2:04.63 | 56216 | 65578
7 | 14:34.29 | 3:49.37 | 65579 | 82790
8 | 18:23.66 | 2:40.53 | 82791 | 94843
9 | 21:04.44 | 2:16.38 | 94844 | 105081
10 | 23:21.07 | 2:29.31 | 105082 | 116287
11 | 25:50.38 | 2:36.34 | 116288 | 128021
12 | 28:26.72 | 2:12.68 | 128022 | 137989
13 | 30:39.65 | 2:55.11 | 137990 | 151125

Range status and errors

Selected range

Filename G:\На_Перекачку\Hatebreed\2016 – The Concrete Confessional [Nuclear Blast, NB 3667-2]\Hatebreed – The Concrete Confessional.wav

Peak level 100.0 %
Extraction speed 3.6 X
Range quality 100.0 %
Test CRC 57C2D07D
Copy CRC 57C2D07D
Copy OK

No errors occurred

AccurateRip summary

Track 1 not present in database
Track 2 not present in database
Track 3 not present in database
Track 4 not present in database
Track 5 not present in database
Track 6 not present in database
Track 7 not present in database
Track 8 not present in database
Track 9 not present in database
Track 10 not present in database
Track 11 not present in database
Track 12 not present in database
Track 13 not present in database

None of the tracks are present in the AccurateRip database

End of status report

—- CUETools DB Plugin V2.1.6

[CTDB TOCID: 1NFv0zZfItSUrU_8be5raZ97EGs-] found
Submit result: 1NFv0zZfItSUrU_8be5raZ97EGs- has been confirmed
Track | CTDB Status
1 | (22/22) Accurately ripped
2 | (22/22) Accurately ripped
3 | (22/22) Accurately ripped
4 | (22/22) Accurately ripped
5 | (22/22) Accurately ripped
6 | (22/22) Accurately ripped
7 | (22/22) Accurately ripped
8 | (22/22) Accurately ripped
9 | (22/22) Accurately ripped
10 | (22/22) Accurately ripped
11 | (22/22) Accurately ripped
12 | (22/22) Accurately ripped
13 | (22/22) Accurately ripped

==== Log checksum 90A33CBC294E7FCFDA1320367581756251A6DA43EC249AD047CA131E5B51206F ====

REM GENRE Hardcore
REM DATE 2016
REM DISCID A107DF0D
REM COMMENT “ExactAudioCopy v1.1”
PERFORMER “Hatebreed”
TITLE “The Concrete Confessional”
FILE “Hatebreed – The Concrete Confessional.flac” WAVE
TRACK 01 AUDIO
TITLE “A.D.”
PERFORMER “Hatebreed”
INDEX 01 00:00:00
TRACK 02 AUDIO
TITLE “Looking Down The Barrel Of Today”
PERFORMER “Hatebreed”
INDEX 01 02:50:65
TRACK 03 AUDIO
TITLE “Seven Enemies”
PERFORMER “Hatebreed”
INDEX 00 05:32:36
INDEX 01 05:32:37
TRACK 04 AUDIO
TITLE “In The Walls”
PERFORMER “Hatebreed”
INDEX 00 07:37:73
INDEX 01 07:37:74
TRACK 05 AUDIO
TITLE “From Grace We’ve Fallen”
PERFORMER “Hatebreed”
INDEX 00 09:48:19
INDEX 01 09:48:20
TRACK 06 AUDIO
TITLE “Us Against Us”
PERFORMER “Hatebreed”
INDEX 00 12:29:40
INDEX 01 12:29:41
TRACK 07 AUDIO
TITLE “Something’s Off”
PERFORMER “Hatebreed”
INDEX 00 14:34:28
INDEX 01 14:34:29
TRACK 08 AUDIO
TITLE “Remember When”
PERFORMER “Hatebreed”
INDEX 00 18:23:65
INDEX 01 18:23:66
TRACK 09 AUDIO
TITLE “Slaughtered In Their Dreams”
PERFORMER “Hatebreed”
INDEX 00 21:04:43
INDEX 01 21:04:44
TRACK 10 AUDIO
TITLE “The Apex Within”
PERFORMER “Hatebreed”
INDEX 00 23:21:06
INDEX 01 23:21:07
TRACK 11 AUDIO
TITLE “Walking The Knife”
PERFORMER “Hatebreed”
INDEX 00 25:50:37
INDEX 01 25:50:38
TRACK 12 AUDIO
TITLE “Dissonance”
PERFORMER “Hatebreed”
INDEX 00 28:26:71
INDEX 01 28:26:72
TRACK 13 AUDIO
TITLE “Serve Your Masters”
PERFORMER “Hatebreed”
INDEX 00 30:39:64
INDEX 01 30:39:65


Leave a Reply

Your email address will not be published. Required fields are marked *

This site uses Akismet to reduce spam. Learn how your comment data is processed.