Hatebreed – Supremacy




[Total: 0    Average: 0/5]

Artist: Hatebreed
Year: 2006
Genre: Hardcore
Notes: Discogs
Add. Notes:
Cover incl.: Yes
Encoder: FLAC
Bitrate: ~1000 kBit/s (44.1 kHz/16 Bit/s)
Log & Cue incl.: Yes
Size: 344,62 MB
Password: “slam” (without ” “)


All Downloads/Hosters are compatible

Download 1
Share-online.biz
Rapidgator.net
UploadEver.com
KatFile.com
UsersDrive.com
Download 2
Share-online.biz
Rapidgator.net
UploadEver.com
KatFile.com
UsersDrive.com
Download 3
Share-online.biz
Rapidgator.net
UploadEver.com
KatFile.com
UsersDrive.com

Tracklist:

1 - Defeatist - 3:19
2 - Horrors Of Self - 2:29
3 - Mind Over All - 1:59
4 - To The Treshold - 2:49
5 - Give Wings To My Triumph - 3:05
6 - Destroy Everything - 3:29
7 - Divine Judgment - 2:28
8 - Immortal Enemies - 2:29
9 - The Most Truth - 2:44
10 - Never Let It Die - 3:39
11 - Spitting Venom - 2:49
12 - As Diehard As They Come - 2:16
13 - Supremacy Of Self - 2:47

EAC-Log, CUE-Sheed & NFO:

Click to open spoiler
EAC extraction logfile from 28. November 2006, 13:33 for CD
Hatebreed / Supremacy

Used drive : _NEC DVD_RW ND-2510A Adapter: 1 ID: 0
Read mode : Secure with NO C2, accurate stream, disable cache
Read offset correction : 48
Overread into Lead-In and Lead-Out : No

Used output format : C:\Programme\EAC (Exact Audio Copy)\MAC.EXE (Monkey’s Audio Lossless Encoder)
High Lossless Compression

Other options :
Fill up missing offset samples with silence : Yes
Delete leading and trailing silent blocks : No
Installed external ASPI interface

Range status and errors
Selected range
Filename H:\MMT\Hatebreed-[2006] Supremacy [EAC-APE] by FallingStar [MeTaLMaDNeSS.TeaM]\CDImage.wav

Peak level 96.6 %
Range quality 99.9 %
CRC 936BF52E
Copy OK

No errors occured

End of status report
REM GENRE Hardcore
REM DATE 2006
REM DISCID 9D088C0D
REM COMMENT ExactAudioCopy v0.95b1
PERFORMER “Hatebreed”
TITLE “Supremacy”
FILE “Hatebreed – Supremacy.flac” WAVE
TRACK 01 AUDIO
TITLE “Defeatist”
PERFORMER “Hatebreed”
INDEX 01 00:00:00
TRACK 02 AUDIO
TITLE “Horrors Of Self”
PERFORMER “Hatebreed”
INDEX 01 03:19:31
TRACK 03 AUDIO
TITLE “Mind Over All”
PERFORMER “Hatebreed”
INDEX 01 05:48:63
TRACK 04 AUDIO
TITLE “To The Threshold”
PERFORMER “Hatebreed”
INDEX 01 07:47:68
TRACK 05 AUDIO
TITLE “Give Wings To My Triumph”
PERFORMER “Hatebreed”
INDEX 01 10:37:34
TRACK 06 AUDIO
TITLE “Destroy Everything”
PERFORMER “Hatebreed”
INDEX 01 13:43:09
TRACK 07 AUDIO
TITLE “Divine Judgment”
PERFORMER “Hatebreed”
INDEX 01 17:12:14
TRACK 08 AUDIO
TITLE “Immortal Enemies”
PERFORMER “Hatebreed”
INDEX 01 19:40:54
TRACK 09 AUDIO
TITLE “The Most Truth”
PERFORMER “Hatebreed”
INDEX 01 22:10:18
TRACK 10 AUDIO
TITLE “Never Let It Die”
PERFORMER “Hatebreed”
INDEX 01 24:54:36
TRACK 11 AUDIO
TITLE “Spitting Venom”
PERFORMER “Hatebreed”
INDEX 01 28:34:26
TRACK 12 AUDIO
TITLE “As Diehard As They Come”
PERFORMER “Hatebreed”
INDEX 01 31:23:70
TRACK 13 AUDIO
TITLE “Supremacy Of Self”
PERFORMER “Hatebreed”
INDEX 01 33:40:67

Spread the Download

Leave a Reply

Your email address will not be published. Required fields are marked *

Enter the text from the image below
 

This site uses Akismet to reduce spam. Learn how your comment data is processed.