Hatebreed – Satisfaction Is The Death Of Desire




[Total: 0    Average: 0/5]

Artist: Hatebreed
Year: 1997
Genre: Metal
Notes: Discogs
Add. Notes:
Cover incl.: Yes
Encoder: FLAC
Bitrate: ~1100 kBit/s (44.1 kHz/16 Bit/s)
Log & Cue incl.: Yes
Size: 197,24 MB
Password: “slam” (without ” “)


All Downloads/Hosters are compatible

Download 1
Share-online.biz
Rapidgator.net
UploadEver.com
KatFile.com
UsersDrive.com
Download 2
Share-online.biz
Rapidgator.net
UploadEver.com
KatFile.com
UsersDrive.com
Download 3
Share-online.biz
Rapidgator.net
UploadEver.com
KatFile.com
UsersDrive.com

Tracklist:

1. Empty Promises 1:19
2. Burn The Lies 1:46
3. Before Dishonor 2:39
4. Puritan 2:11
5. Conceived Through An Act Of Violence 1:44
6. Afflicted Past 1:42
7. Prepare For War 2:01
8. Not One Truth 2:02
9. Betrayed By Life 1:39
10. Mark My Words 1:51
11. Last Breath 1:33
12. Burial For The Living 1:40
13. Worlds Apart 2:04
14. Driven By Suffering 1:34

EAC-Log, CUE-Sheed & NFO:

Click to open spoiler
Exact Audio Copy V0.99 prebeta 4 from 23. January 2008

EAC extraction logfile from 16. September 2008, 22:07

Hatebreed / Satisfaction is the Death of Desire

Used drive : SONY DVD RW DW-D26A Adapter: 0 ID: 0

Read mode : Secure
Utilize accurate stream : Yes
Defeat audio cache : Yes
Make use of C2 pointers : No

Read offset correction : 12
Overread into Lead-In and Lead-Out : No
Fill up missing offset samples with silence : Yes
Delete leading and trailing silent blocks : No
Null samples used in CRC calculations : Yes
Used interface : Native Win32 interface for Win NT & 2000

Used output format : User Defined Encoder
Selected bitrate : 768 kBit/s
Quality : High
Add ID3 tag : No
Command line compressor : C:\Program Files\Exact Audio Copy\FLAC\FLAC.EXE
Additional command line options : -8 -V -T “ARTIST=%a” -T “TITLE=%t” -T “ALBUM=%g” -T “DATE=%y” -T “TRACKNUMBER=%n” -T “GENRE=%m” -T “COMMENT=%e” %s -o %d

TOC of the extracted CD

Track | Start | Length | Start sector | End sector
———————————————————
1 | 0:00.00 | 1:18.67 | 0 | 5916
2 | 1:18.67 | 1:45.63 | 5917 | 13854
3 | 3:04.55 | 2:38.43 | 13855 | 25747
4 | 5:43.23 | 2:11.04 | 25748 | 35576
5 | 7:54.27 | 1:44.07 | 35577 | 43383
6 | 9:38.34 | 1:41.44 | 43384 | 51002
7 | 11:20.03 | 2:00.54 | 51003 | 60056
8 | 13:20.57 | 2:02.00 | 60057 | 69206
9 | 15:22.57 | 1:39.16 | 69207 | 76647
10 | 17:01.73 | 1:51.17 | 76648 | 84989
11 | 18:53.15 | 1:33.32 | 84990 | 91996
12 | 20:26.47 | 1:40.22 | 91997 | 99518
13 | 22:06.69 | 2:04.31 | 99519 | 108849
14 | 24:11.25 | 1:34.16 | 108850 | 115915

Range status and errors

Selected range

Filename C:\Documents and Settings\AK\My Documents\Rips\flac\Hatebreed\Hatebreed – Satisfaction is the Death of Desire.wav

Peak level 96.6 %
Range quality 100.0 %
Test CRC 6186237E
Copy CRC 6186237E
Copy OK

No errors occurred

AccurateRip summary

Track 1 accurately ripped (confidence 5) [DA4AA142]
Track 2 accurately ripped (confidence 5) [31EB3F3B]
Track 3 accurately ripped (confidence 5) [E1519758]
Track 4 accurately ripped (confidence 5) [1A397140]
Track 5 accurately ripped (confidence 5) [02CC15DB]
Track 6 accurately ripped (confidence 5) [B44599F0]
Track 7 accurately ripped (confidence 5) [CD2FE5FE]
Track 8 accurately ripped (confidence 5) [088F4787]
Track 9 accurately ripped (confidence 5) [F6519EDB]
Track 10 accurately ripped (confidence 5) [B7FFADBE]
Track 11 accurately ripped (confidence 5) [BC54FADE]
Track 12 accurately ripped (confidence 5) [7CD6F8D3]
Track 13 accurately ripped (confidence 5) [5B6B8BCD]
Track 14 accurately ripped (confidence 5) [B7765CFF]

All tracks accurately ripped

End of status report

REM GENRE Hardcore
REM DATE 1997
REM DISCID A406090E
REM COMMENT “ExactAudioCopy v0.99pb4”
PERFORMER “Hatebreed”
TITLE “Satisfaction is the Death of Desire”
FILE “Hatebreed – Satisfaction is the Death of Desire.flac” WAVE
TRACK 01 AUDIO
TITLE “Empty Promises”
PERFORMER “Hatebreed”
INDEX 01 00:00:00
TRACK 02 AUDIO
TITLE “Burn the Lies”
PERFORMER “Hatebreed”
INDEX 01 01:18:67
TRACK 03 AUDIO
TITLE “Before Dishonor”
PERFORMER “Hatebreed”
INDEX 01 03:04:55
TRACK 04 AUDIO
TITLE “Puritan”
PERFORMER “Hatebreed”
INDEX 01 05:43:23
TRACK 05 AUDIO
TITLE “Conceived Through an Act of Violence”
PERFORMER “Hatebreed”
INDEX 01 07:54:27
TRACK 06 AUDIO
TITLE “Afflicted Past”
PERFORMER “Hatebreed”
INDEX 01 09:38:34
TRACK 07 AUDIO
TITLE “Prepare For War”
PERFORMER “Hatebreed”
INDEX 01 11:20:03
TRACK 08 AUDIO
TITLE “Not One Truth”
PERFORMER “Hatebreed”
INDEX 01 13:20:57
TRACK 09 AUDIO
TITLE “Betrayed By Life”
PERFORMER “Hatebreed”
INDEX 01 15:22:57
TRACK 10 AUDIO
TITLE “Mark My Words”
PERFORMER “Hatebreed”
INDEX 01 17:01:73
TRACK 11 AUDIO
TITLE “Last Breath”
PERFORMER “Hatebreed”
INDEX 01 18:53:15
TRACK 12 AUDIO
TITLE “Burial For the Living”
PERFORMER “Hatebreed”
INDEX 01 20:26:47
TRACK 13 AUDIO
TITLE “Worlds Apart”
PERFORMER “Hatebreed”
INDEX 01 22:06:69
TRACK 14 AUDIO
TITLE “Driven By Suffering”
PERFORMER “Hatebreed”
INDEX 01 24:11:25

Spread the Download

Leave a Reply

Your email address will not be published. Required fields are marked *

Enter the text from the image below
 

This site uses Akismet to reduce spam. Learn how your comment data is processed.