Hatebreed – Perseverance




Artist: Hatebreed
Year: 2002
Genre: Rock
Notes: Discogs
Add. Notes:
Cover incl.: Yes
Encoder: FLAC
Bitrate: ~1000 kBit/s (44.1 kHz/16 Bit/s)
Log & Cue incl.: Yes
Size: 315,75 MB
Password: “slam” (without ” “)


All Downloads/Hosters are compatible

Download 1
Turbobit.net
Rapidgator.net
KatFile.com
UsersDrive.com
CloudShare.to
Download 2
Turbobit.net
Rapidgator.net
KatFile.com
UsersDrive.com
CloudShare.to
Download 3
Turbobit.net
Rapidgator.net
KatFile.com
UsersDrive.com
CloudShare.to

Tracklist:

1 - Proven - 2:36
2 - Perseverance - 2:21
3 - You're Never Alone - 3:22
4 - I Will Be Heard - 2:59
5 - A Call For Blood - 3:05
6 - Below The Bottom - 2:26
7 - We Still Fight - 1:35
8 - Unloved - 2:38
9 - Bloodsoaked Memories - 2:53
10 - Hollow Ground - 2:40
11 - Final Prayer - 2:13
12 - Smash Your Enemies - 2:10
13 - Healing To Suffer Again - 2:50
14 - Judgement Strikes (Unbreakable) - 1:26
15 - Remain Nameless - 2:51
16 - Outro - 0:38

EAC-Log, CUE-Sheed & NFO:

Click to open spoiler
Exact Audio Copy V1.0 beta 6 from 9. April 2015

EAC extraction logfile from 4. September 2015, 20:43

Hatebreed / Perseverance

Used drive : ASUS DRW-22B2L Adapter: 1 ID: 0

Read mode : Secure
Utilize accurate stream : Yes
Defeat audio cache : Yes
Make use of C2 pointers : No

Read offset correction : 6
Overread into Lead-In and Lead-Out : No
Fill up missing offset samples with silence : Yes
Delete leading and trailing silent blocks : No
Null samples used in CRC calculations : Yes
Used interface : Native Win32 interface for Win NT & 2000

Used output format : Internal WAV Routines
Sample format : 44.100 Hz; 16 Bit; Stereo

TOC of the extracted CD

Track | Start | Length | Start sector | End sector
———————————————————
1 | 0:00.00 | 2:35.65 | 0 | 11689
2 | 2:35.65 | 2:20.48 | 11690 | 22237
3 | 4:56.38 | 3:21.45 | 22238 | 37357
4 | 8:18.08 | 2:58.50 | 37358 | 50757
5 | 11:16.58 | 3:05.27 | 50758 | 64659
6 | 14:22.10 | 2:25.73 | 64660 | 75607
7 | 16:48.08 | 1:35.07 | 75608 | 82739
8 | 18:23.15 | 2:37.65 | 82740 | 94579
9 | 21:01.05 | 2:52.73 | 94580 | 107552
10 | 23:54.03 | 2:39.42 | 107553 | 119519
11 | 26:33.45 | 2:12.53 | 119520 | 129472
12 | 28:46.23 | 2:09.40 | 129473 | 139187
13 | 30:55.63 | 2:49.52 | 139188 | 151914
14 | 33:45.40 | 1:25.70 | 151915 | 158359
15 | 35:11.35 | 2:50.53 | 158360 | 171162
16 | 38:02.13 | 0:38.30 | 171163 | 174042

Range status and errors

Selected range

Filename D:\Rip-Flacmusic.org\Scullplug\Hatebreed 2002FM\Hatebreed – Perseverance.wav

Peak level 99.8 %
Extraction speed 2.8 X
Range quality 100.0 %
Test CRC 84B958A3
Copy CRC 84B958A3
Copy OK

No errors occurred

AccurateRip summary

Track 1 cannot be verified as accurate (confidence 13) [A5BD74D3], AccurateRip returned [C5894282] (AR v2)
Track 2 cannot be verified as accurate (confidence 13) [D0B734AC], AccurateRip returned [A6AB5AF5] (AR v2)
Track 3 cannot be verified as accurate (confidence 13) [F4CE9E25], AccurateRip returned [3862B463] (AR v2)
Track 4 cannot be verified as accurate (confidence 13) [29CAE4E0], AccurateRip returned [9979F1D3] (AR v2)
Track 5 cannot be verified as accurate (confidence 13) [DF921287], AccurateRip returned [6A2055B5] (AR v2)
Track 6 cannot be verified as accurate (confidence 13) [9B1BD0A0], AccurateRip returned [D4BE5C2E] (AR v2)
Track 7 cannot be verified as accurate (confidence 13) [683E3652], AccurateRip returned [B519224A] (AR v2)
Track 8 cannot be verified as accurate (confidence 13) [D16746EE], AccurateRip returned [AB8B6E5D] (AR v2)
Track 9 cannot be verified as accurate (confidence 13) [277A5DE8], AccurateRip returned [C63B4F84] (AR v2)
Track 10 cannot be verified as accurate (confidence 13) [8F75AD62], AccurateRip returned [99CDABBF] (AR v2)
Track 11 cannot be verified as accurate (confidence 13) [8E51D0EA], AccurateRip returned [33470CDC] (AR v2)
Track 12 cannot be verified as accurate (confidence 13) [EA652F1A], AccurateRip returned [9F8EDBEC] (AR v2)
Track 13 cannot be verified as accurate (confidence 13) [9AAE6695], AccurateRip returned [B75C9B59] (AR v2)
Track 14 cannot be verified as accurate (confidence 13) [0527A7AD], AccurateRip returned [CA845FA8] (AR v2)
Track 15 cannot be verified as accurate (confidence 13) [BA837F22], AccurateRip returned [36A98185] (AR v2)
Track 16 cannot be verified as accurate (confidence 13) [AF1DDFB1], AccurateRip returned [ACF05C9E] (AR v2)

No tracks could be verified as accurate
You may have a different pressing from the one(s) in the database

End of status report

==== Log checksum 9C21BB4A6996A3653BC65ABD557F9E9123B5988A9B1178783946E544EE2DF676 ====

REM GENRE “Hard Core”
REM DATE 2002
REM DISCID CE091010
REM COMMENT “ExactAudioCopy v1.0b6”
PERFORMER “Hatebreed”
TITLE “Perseverance”
FILE “Hatebreed – Perseverance.flac” WAVE
TRACK 01 AUDIO
TITLE “Proven”
PERFORMER “Hatebreed”
INDEX 01 00:00:00
TRACK 02 AUDIO
TITLE “Perseverance”
PERFORMER “Hatebreed”
INDEX 01 02:35:65
TRACK 03 AUDIO
TITLE “You’re Never Alone”
PERFORMER “Hatebreed”
INDEX 01 04:56:38
TRACK 04 AUDIO
TITLE “I Will Be Heard”
PERFORMER “Hatebreed”
INDEX 01 08:18:08
TRACK 05 AUDIO
TITLE “A Call for Blood”
PERFORMER “Hatebreed”
INDEX 01 11:16:58
TRACK 06 AUDIO
TITLE “Below the Bottom”
PERFORMER “Hatebreed”
INDEX 01 14:22:10
TRACK 07 AUDIO
TITLE “We Still Fight”
PERFORMER “Hatebreed”
INDEX 01 16:48:08
TRACK 08 AUDIO
TITLE “Unloved”
PERFORMER “Hatebreed”
INDEX 01 18:23:15
TRACK 09 AUDIO
TITLE “Bloodsoaked Memories”
PERFORMER “Hatebreed”
INDEX 01 21:01:05
TRACK 10 AUDIO
TITLE “Hollow Ground”
PERFORMER “Hatebreed”
INDEX 01 23:54:03
TRACK 11 AUDIO
TITLE “Final Prayer”
PERFORMER “Hatebreed feat. Kerry King”
INDEX 01 26:33:45
TRACK 12 AUDIO
TITLE “Smash Your Enemies”
PERFORMER “Hatebreed”
INDEX 01 28:46:23
TRACK 13 AUDIO
TITLE “Healing to Suffer Again”
PERFORMER “Hatebreed”
INDEX 01 30:55:63
TRACK 14 AUDIO
TITLE “Judgement Strikes (Unbreakable)”
PERFORMER “Hatebreed”
INDEX 01 33:45:40
TRACK 15 AUDIO
TITLE “Remain Nameless”
PERFORMER “Hatebreed”
INDEX 01 35:11:35
TRACK 16 AUDIO
TITLE “Outro”
PERFORMER “Hatebreed”
INDEX 01 38:02:13

Leave a Reply

Your email address will not be published. Required fields are marked *

This site uses Akismet to reduce spam. Learn how your comment data is processed.