Hatebreed – Hatebreed




Artist: Hatebreed
Year: 2009
Genre: Punk
Notes: Discogs
Add. Notes:
Cover incl.: Yes
Encoder: FLAC
Bitrate: ~1000 kBit/s (44.1 kHz/16 Bit/s)
Log & Cue incl.: Yes
Size: 365,55 MB
Password: “slam” (without ” “)


All Downloads/Hosters are compatible

Download 1
Turbobit.net
Rapidgator.net
UploadEver.com
KatFile.com
UsersDrive.com
Download 2
Turbobit.net
Rapidgator.net
UploadEver.com
KatFile.com
UsersDrive.com
Download 3
Turbobit.net
Rapidgator.net
UploadEver.com
KatFile.com
UsersDrive.com

Tracklist:

1. Become The Fuse 2:27
2. Not My Master 3:14
3. Between Hell And A Heartbeat 2:54
4. In Ashes They Shall Reap 3:21
5. Hands Of Dying Man 2:48
6. Everyone Bleeds Now 2:56
7. No Halos For The Heartless 2:57
8. Through The Thorns 3:24
9. Every Lasting Scar 3:14
10. As Damaged As Me 2:21
11. Words Became Untruth 2:33
12. Undiminished 4:19
13. Merciless Tide 2:40
14. Pollution Of The Soul 2:45

EAC-Log, CUE-Sheed & NFO:

Click to open spoiler
Exact Audio Copy V0.99 prebeta 5 from 4. May 2009

EAC extraction logfile from 13. December 2010, 20:55

Hatebreed / Hatebreed

Used drive : ASUS DRW-1814BL Adapter: 3 ID: 0

Read mode : Secure
Utilize accurate stream : Yes
Defeat audio cache : Yes
Make use of C2 pointers : No

Read offset correction : 6
Overread into Lead-In and Lead-Out : No
Fill up missing offset samples with silence : Yes
Delete leading and trailing silent blocks : No
Null samples used in CRC calculations : Yes
Used interface : Installed external ASPI interface

Used output format : Internal WAV Routines
Sample format : 44.100 Hz; 16 Bit; Stereo

TOC of the extracted CD

Track | Start | Length | Start sector | End sector
———————————————————
1 | 0:00.00 | 2:27.68 | 0 | 11092
2 | 2:27.68 | 3:14.52 | 11093 | 25694
3 | 5:42.45 | 2:54.21 | 25695 | 38765
4 | 8:36.66 | 3:21.02 | 38766 | 53842
5 | 11:57.68 | 2:48.52 | 53843 | 66494
6 | 14:46.45 | 2:56.58 | 66495 | 79752
7 | 17:43.28 | 2:57.07 | 79753 | 93034
8 | 20:40.35 | 3:24.05 | 93035 | 108339
9 | 24:04.40 | 3:14.04 | 108340 | 122893
10 | 27:18.44 | 2:21.21 | 122894 | 133489
11 | 29:39.65 | 2:33.37 | 133490 | 145001
12 | 32:13.27 | 4:19.24 | 145002 | 164450
13 | 36:32.51 | 2:40.73 | 164451 | 176523
14 | 39:13.49 | 2:45.39 | 176524 | 188937

Range status and errors

Selected range

Filename C:\Hatebreed – Hatebreed.wav

Peak level 98.9 %
Range quality 100.0 %
Test CRC E574D52C
Copy CRC E574D52C
Copy OK

No errors occurred

AccurateRip summary

Track 1 accurately ripped (confidence 4) [E6AE3AA9]
Track 2 accurately ripped (confidence 4) [A429DE29]
Track 3 accurately ripped (confidence 4) [C64CDD37]
Track 4 accurately ripped (confidence 4) [D61BEA84]
Track 5 accurately ripped (confidence 4) [1D413BBA]
Track 6 accurately ripped (confidence 4) [204BB54D]
Track 7 accurately ripped (confidence 4) [A00DD188]
Track 8 accurately ripped (confidence 4) [C366ED44]
Track 9 accurately ripped (confidence 4) [93AC3838]
Track 10 accurately ripped (confidence 4) [6F243348]
Track 11 accurately ripped (confidence 4) [1D407A66]
Track 12 accurately ripped (confidence 4) [1B6EC908]
Track 13 accurately ripped (confidence 4) [0AEEEC51]
Track 14 accurately ripped (confidence 4) [546E847E]

All tracks accurately ripped

End of status report

REM GENRE “Hardcore/Metalcore”
REM DATE 2009
REM DISCID C309D70E
REM COMMENT “ExactAudioCopy v0.99pb5”
PERFORMER “Hatebreed”
TITLE “Hatebreed”
FILE “Hatebreed – Hatebreed.flac” WAVE
TRACK 01 AUDIO
TITLE “Become The Fuse”
PERFORMER “Hatebreed”
INDEX 01 00:00:00
TRACK 02 AUDIO
TITLE “Not My Master”
PERFORMER “Hatebreed”
INDEX 01 02:27:68
TRACK 03 AUDIO
TITLE “Between Hell And A Heartbeat”
PERFORMER “Hatebreed”
INDEX 01 05:42:45
TRACK 04 AUDIO
TITLE “In Ashes They Shall Reap”
PERFORMER “Hatebreed”
INDEX 01 08:36:66
TRACK 05 AUDIO
TITLE “Hands Of A Dying Man”
PERFORMER “Hatebreed”
INDEX 01 11:57:68
TRACK 06 AUDIO
TITLE “Everyone Bleeds Now”
PERFORMER “Hatebreed”
INDEX 01 14:46:45
TRACK 07 AUDIO
TITLE “No Halos For The Heartless”
PERFORMER “Hatebreed”
INDEX 01 17:43:28
TRACK 08 AUDIO
TITLE “Through The Thorns”
PERFORMER “Hatebreed”
INDEX 01 20:40:35
TRACK 09 AUDIO
TITLE “Every Lasting Scar”
PERFORMER “Hatebreed”
INDEX 01 24:04:40
TRACK 10 AUDIO
TITLE “As Damaged As Me”
PERFORMER “Hatebreed”
INDEX 01 27:18:44
TRACK 11 AUDIO
TITLE “Words Became Untruth”
PERFORMER “Hatebreed”
INDEX 01 29:39:65
TRACK 12 AUDIO
TITLE “Undiminished”
PERFORMER “Hatebreed”
INDEX 01 32:13:27
TRACK 13 AUDIO
TITLE “Merciless Tide”
PERFORMER “Hatebreed”
INDEX 01 36:32:51
TRACK 14 AUDIO
TITLE “Pollution Of The Soul”
PERFORMER “Hatebreed”
INDEX 01 39:13:49

Leave a Reply

Your email address will not be published. Required fields are marked *

This site uses Akismet to reduce spam. Learn how your comment data is processed.