Hass – Anarchistenschwein




Artist: Hass
Year: 1996
Genre: Punk
Notes: Discogs
Add. Notes:
Cover incl.: Yes
Encoder: FLAC
Bitrate: ~1000 kBit/s (44.1 kHz/16 Bit/s)
Log & Cue incl.: Yes
Size: 375,61 MB
Password: “slam” (without ” “)


All Downloads/Hosters are compatible

Download 1
Turbobit.net
Rapidgator.net
KatFile.com
UploadRar.com
Download 2
Turbobit.net
Rapidgator.net
KatFile.com
UploadRar.com
Download 3
Turbobit.net
Rapidgator.net
KatFile.com
UploadRar.com

Tracklist:

1 - Anarchistenschwein - 3:48
2 - Das Wäre Geil - 2:09
3 - Liebe Tanten - 1:54
4 - Bulle, Warum? - 1:44
5 - Ich Sehe Dich Nicht - 3:21
6 - Nie Ein Star - 1:54
7 - Penner Mit Lederjacke - 1:36
8 - Mutantenstadl - 2:25
9 - Hey Chef - 1:26
10 - Angeödet - 3:37
11 - Tanzt Ihr Affen - 2:23
12 - Unschuldig - 2:37
13 - Im Namen Des Volkes - 2:21
14 - Lauschangriff - 1:53
15 - Es Ist Hart - 5:38
16 - Haste Was, Biste Was - 2:16
17 - Ohne Worte - 1:24
Video 1 - Chaos 

EAC-Log, CUE-Sheed & NFO:

Click to open spoiler
Exact Audio Copy V0.99 prebeta 5 from 4. May 2009

????? EAC ?? ??????????, ??????????? 10. ???? 2009, 19:39

Hass / Anarchistenschwein

????????: TSSTcorpCDDVDW SH-S223Q Adapter: 0 ID: 0

????? ?????? : ?????????????
????????????? ??????? ?????? : ??
?????????? ???? ????? : ??
????????????? ?????????? C2 : ???

????????? ???????? ??? ?????? : 6
??????????? ?????? ??????? Lead-in ? Lead-out : ???
?????????? ??????????? ??????? ??????? : ??
???????? ?????? ? ??????? ? ?????? ? ????? : ???
??? ??????????? CRC ?????????????? ??????? ?????? : ??
????????? : ????????????? ??????? ASPI-?????????

???????? ?????? : ???????????????? ??????????
????????? ??????? : 768 kBit/s
???????? : ???????
?????????? ID3-???? : ???
??????? ?????? : C:\Program Files\Exact Audio Copy\FLAC\FLAC.EXE
?????????????? ????????? : -6 -V -T “ARTIST=%a” -T “TITLE=%t” -T “ALBUM=%g” -T “DATE=%y” -T “TRACKNUMBER=%n” -T “GENRE=%m” -T “COMMENT=%e” %s -o %d

TOC ???????????? CD

???? | ????? | ???????????? | ????????? ?????? | ???????? ??????
———————————————————————
1 | 0:00.00 | 3:55.23 | 0 | 17647
2 | 3:55.23 | 2:13.27 | 17648 | 27649
3 | 6:08.50 | 1:57.59 | 27650 | 36483
4 | 8:06.34 | 1:46.71 | 36484 | 44504
5 | 9:53.30 | 3:25.10 | 44505 | 59889
6 | 13:18.40 | 2:01.33 | 59890 | 68997
7 | 15:19.73 | 1:43.54 | 68998 | 76776
8 | 17:03.52 | 2:27.51 | 76777 | 87852
9 | 19:31.28 | 1:30.21 | 87853 | 94623
10 | 21:01.49 | 3:44.58 | 94624 | 111481
11 | 24:46.32 | 2:29.67 | 111482 | 122723
12 | 27:16.24 | 2:40.02 | 122724 | 134725
13 | 29:56.26 | 2:24.42 | 134726 | 145567
14 | 32:20.68 | 1:57.45 | 145568 | 154387
15 | 34:18.38 | 5:46.52 | 154388 | 180389
16 | 40:05.15 | 2:24.01 | 180390 | 191190
17 | 42:29.16 | 1:28.66 | 191191 | 197856
18 | 46:30.07 | 7:51.20 | 209257 | 244601

?????????????? ????????? ?????????? ? ????????? ?? ???????

????????? ????????

??? ????? C:\Documents and Settings\Admin\??????? ????\Hass – Anarchistenschwein.wav

??????? ??????? 97.7 %
???????? ????????? 100.0 %
CRC ????? 995BDE41
CRC ????? 995BDE41
???????????… OK

?????? ?? ?????????

AccurateRip: ??????

???? 1 ?????? ?????????? (??????? 1) [6F6D575D]
???? 2 ?????? ?????????? (??????? 1) [CD8F8CAF]
???? 3 ?????? ?????????? (??????? 1) [E2252117]
???? 4 ?????? ?????????? (??????? 1) [A3241293]
???? 5 ?????? ?????????? (??????? 1) [9141A36F]
???? 6 ?????? ?????????? (??????? 1) [5829CDB8]
???? 7 ?????? ?????????? (??????? 1) [CCFE0C0A]
???? 8 ?????? ?????????? (??????? 1) [534177F1]
???? 9 ?????? ?????????? (??????? 1) [F16664F9]
???? 10 ?????? ?????????? (??????? 1) [BFA2189A]
???? 11 ?????? ?????????? (??????? 1) [9D55DB98]
???? 12 ?????? ?????????? (??????? 1) [10C0E4F0]
???? 13 ?????? ?????????? (??????? 1) [4F9996F5]
???? 14 ?????? ?????????? (??????? 1) [E6B7DB15]
???? 15 ?????? ?????????? (??????? 1) [6F15F525]
???? 16 ?????? ?????????? (??????? 1) [0F8BC95A]
???? 17 ?????? ?????????? (??????? 1) [F37C392A]

??? ????? ????????? ?????

????? ??????

REM GENRE Deutschpunk
REM DATE 1996
REM DISCID F90CBD12
REM COMMENT “ExactAudioCopy v0.99pb5”
PERFORMER “Hass”
TITLE “Anarchistenschwein”
FILE “Hass – Anarchistenschwein.flac” WAVE
TRACK 01 AUDIO
TITLE “Anarchistenschwein”
PERFORMER “Hass”
INDEX 01 00:00:00
TRACK 02 AUDIO
TITLE “Das wäre geil”
PERFORMER “Hass”
INDEX 00 03:53:28
INDEX 01 03:55:23
TRACK 03 AUDIO
TITLE “Liebe Tanten”
PERFORMER “Hass”
INDEX 00 06:06:62
INDEX 01 06:08:50
TRACK 04 AUDIO
TITLE “Bulle warum”
PERFORMER “Hass”
INDEX 00 08:04:39
INDEX 01 08:06:34
TRACK 05 AUDIO
TITLE “Ich sehe dich nicht”
PERFORMER “Hass”
INDEX 00 09:51:34
INDEX 01 09:53:30
TRACK 06 AUDIO
TITLE “Nie ein Star”
PERFORMER “Hass”
INDEX 00 13:16:45
INDEX 01 13:18:40
TRACK 07 AUDIO
TITLE “Penner mit Lederjacke”
PERFORMER “Hass”
INDEX 00 15:17:72
INDEX 01 15:19:73
TRACK 08 AUDIO
TITLE “Mutantenstadl”
PERFORMER “Hass”
INDEX 00 17:01:60
INDEX 01 17:03:52
TRACK 09 AUDIO
TITLE “Hey Chef”
PERFORMER “Hass”
INDEX 00 19:29:27
INDEX 01 19:31:28
TRACK 10 AUDIO
TITLE “Angeödet”
PERFORMER “Hass”
INDEX 00 20:59:66
INDEX 01 21:01:49
TRACK 11 AUDIO
TITLE “Tanzt ihr Affen”
PERFORMER “Hass”
INDEX 00 24:44:48
INDEX 01 24:46:32
TRACK 12 AUDIO
TITLE “Unschuldig”
PERFORMER “Hass”
INDEX 00 27:14:29
INDEX 01 27:16:24
TRACK 13 AUDIO
TITLE “Im Namen des Volkes”
PERFORMER “Hass”
INDEX 00 29:54:35
INDEX 01 29:56:26
TRACK 14 AUDIO
TITLE “Lauschangriff”
PERFORMER “Hass”
INDEX 00 32:18:69
INDEX 01 32:20:68
TRACK 15 AUDIO
TITLE “Es ist hart”
PERFORMER “Hass”
INDEX 00 34:16:41
INDEX 01 34:18:38
TRACK 16 AUDIO
TITLE “Haste was biste was”
PERFORMER “Hass”
INDEX 00 40:03:35
INDEX 01 40:05:15
TRACK 17 AUDIO
TITLE “Ohne Worte”
PERFORMER “Hass”
INDEX 00 42:27:23
INDEX 01 42:29:16


Leave a Reply

Your email address will not be published. Required fields are marked *

This site uses Akismet to reduce spam. Learn how your comment data is processed.