Hammerfall – Glory To The Brave (Remastered Japanese Edition)




No Cover available


Artist: Hammerfall
Year: 1997
Genre: Metal
Notes: Discogs
Add. Notes: Remastered Japanese Edition
Watch Songs on: YouTube
Cover incl.: Yes
Encoder: FLAC
Bitrate: ~1000 kBit/s (44.1 kHz/16 Bit/s)
Log & Cue incl.: Yes/Yes
Size: 379,8 MB
Password: “slam” (without ” “)


All Downloads/Hosters are compatible

Download 1
KatFile.com
Turbobit.net
Rapidgator.net
FileFactory.com
Download 2
KatFile.com
Turbobit.net
Rapidgator.net
FileFactory.com

Tracklist:

1 The Dragon Lies Bleeding 4:23
2 The Metal Age 4:29
3 Hammerfall 4:47
4 I Believe 4:54
5 Child Of The Damned 3:43
6 Steel Meets Steel 4:02
7 Stone Cold 5:43
8 Unchained 5:38
9 Glory To The Brave 7:20

EAC-Log, CUE-Sheed & NFO:

Click to open spoiler
Exact Audio Copy V1.1 from 23. June 2015

EAC extraction logfile from 4. November 2015, 13:44

Hammerfall / Glory to The Brave

Used drive : ASUS DRW-24F1ST a Adapter: 1 ID: 0

Read mode : Secure
Utilize accurate stream : Yes
Defeat audio cache : Yes
Make use of C2 pointers : No

Read offset correction : 6
Overread into Lead-In and Lead-Out : No
Fill up missing offset samples with silence : Yes
Delete leading and trailing silent blocks : No
Null samples used in CRC calculations : Yes
Used interface : Native Win32 interface for Win NT & 2000

Used output format : User Defined Encoder
Selected bitrate : 768 kBit/s
Quality : High
Add ID3 tag : No
Command line compressor : C:\Program Files (x86)\FLAC Frontend\tools\flac.exe
Additional command line options : -V -8 -T “Date=%year%” -T “Genre=%genre%” %source%

TOC of the extracted CD

Track | Start | Length | Start sector | End sector
———————————————————
1 | 0:00.37 | 4:23.10 | 37 | 19771
2 | 4:23.47 | 4:28.50 | 19772 | 39921
3 | 8:52.22 | 4:47.32 | 39922 | 61478
4 | 13:39.54 | 4:53.43 | 61479 | 83496
5 | 18:33.22 | 3:42.47 | 83497 | 100193
6 | 22:15.69 | 4:01.65 | 100194 | 118333
7 | 26:17.59 | 5:43.18 | 118334 | 144076
8 | 32:01.02 | 5:38.30 | 144077 | 169456
9 | 37:39.32 | 7:18.72 | 169457 | 202378

Range status and errors

Selected range

Filename G:\EAC – Hellixxx rip\Hammerfall – 1997 – Glory to The Brave (VICP-60122).wav

Peak level 100.0 %
Extraction speed 2.4 X
Range quality 100.0 %
Test CRC 182C5DE4
Copy CRC 182C5DE4
Copy OK

No errors occurred

AccurateRip summary

Track 1 accurately ripped (confidence 2) [EA118224] (AR v1)
Track 2 accurately ripped (confidence 2) [556D8654] (AR v1)
Track 3 accurately ripped (confidence 2) [6D1D334E] (AR v1)
Track 4 accurately ripped (confidence 2) [9AD7ACB2] (AR v1)
Track 5 accurately ripped (confidence 2) [92DC4631] (AR v1)
Track 6 accurately ripped (confidence 2) [306962D6] (AR v1)
Track 7 accurately ripped (confidence 2) [E1B8EB5F] (AR v1)
Track 8 accurately ripped (confidence 2) [6491348E] (AR v1)
Track 9 accurately ripped (confidence 2) [43FFD07C] (AR v1)

All tracks accurately ripped

End of status report

==== Log checksum F98847D332B931E0AAB3C84B0AF9C83AB8A5A1C5B4FE0511FA662CE107862B2A ====

REM GENRE Metal
REM DATE 1997
REM DISCID 6C0A8A09
REM COMMENT “ExactAudioCopy v1.1”
PERFORMER “Hammerfall”
TITLE “Glory to The Brave”
FILE “Hammerfall – 1997 – Glory to The Brave (VICP-60122).flac” WAVE
TRACK 01 AUDIO
TITLE “The Dragon Lies Bleeding”
PERFORMER “Hammerfall”
INDEX 00 00:00:00
INDEX 01 00:00:37
TRACK 02 AUDIO
TITLE “The Metal Age”
PERFORMER “Hammerfall”
INDEX 00 04:23:10
INDEX 01 04:23:47
TRACK 03 AUDIO
TITLE “Hammerfall”
PERFORMER “Hammerfall”
INDEX 00 08:50:60
INDEX 01 08:52:22
TRACK 04 AUDIO
TITLE “I Believe”
PERFORMER “Hammerfall”
INDEX 00 13:37:18
INDEX 01 13:39:54
TRACK 05 AUDIO
TITLE “Child of The Damned”
PERFORMER “Hammerfall”
INDEX 00 18:29:60
INDEX 01 18:33:22
TRACK 06 AUDIO
TITLE “Steel Meets Steel”
PERFORMER “Hammerfall”
INDEX 00 22:15:33
INDEX 01 22:15:69
TRACK 07 AUDIO
TITLE “Stone Cold”
PERFORMER “Hammerfall”
INDEX 00 26:15:23
INDEX 01 26:17:59
TRACK 08 AUDIO
TITLE “Unchained”
PERFORMER “Hammerfall”
INDEX 00 31:59:40
INDEX 01 32:01:02
TRACK 09 AUDIO
TITLE “Glory to The Brave”
PERFORMER “Hammerfall”
INDEX 00 37:35:70
INDEX 01 37:39:32


Leave a Reply

Your email address will not be published. Required fields are marked *

Enter the text from the image below
 

This site uses Akismet to reduce spam. Learn how your comment data is processed.