HammerFall – Dominion




Artist: HammerFall
Year: 2019
Genre: Metal
Notes: Discogs
Add. Notes:
Cover incl.: Yes
Encoder: FLAC
Bitrate: ~1000 kBit/s (44.1 kHz/16 Bit/s)
Log & Cue incl.: Yes
Size: 823,63 MB
Password: “slam” (without ” “)


All Downloads/Hosters are compatible

Download 1
KatFile.com
Turbobit.net
Rapidgator.net
Download 2
KatFile.com
Turbobit.net
Rapidgator.net

Tracklist:

1 - Never Forgive, Never Forget - 5:31
2 - Dominion - 4:40
3 - Testify - 4:29
4 - One Against The World - 3:53
5 - (We Make) Sweden Rock - 4:16
6 - Second To One - 4:11
7 - Scars Of A Generation - 4:41
8 - Dead By Dawn - 3:59
9 - Battleworn - 0:39
10 - Bloodline - 4:46
11 - Chain Of Command - 4:01
12 - And Yet I Smile - 5:29

EAC-Log, CUE-Sheed & NFO:

Click to open spoiler
Exact Audio Copy V0.99 prebeta 3 from 28. July 2007

Отчёт EAC об извлечении, выполненном 23. сентября 2019, 19:41

HammerFall / Dominion

Дисковод: ASUS DRW-24B5ST Adapter: 0 ID: 2

Режим чтения : Достоверность
Использование точного потока : Да
Отключение кэша аудио : Да
Использование указателей C2 : Нет

Коррекция смещения при чтении : 6
Способность читать области Lead-in и Lead-out : Нет
Заполнение пропущенных сэмплов тишиной : Да
Удаление блоков с тишиной в начале и конце : Нет
При вычислениях CRC использовались нулевые сэмплы : Нет
Интерфейс : Встроенный Win32-интерфейс для Win NT/2000

Выходной формат : Внутренние WAV-операции
Формат сэмплов : 44.100 Гц; 16 бит; стерео

TOC извлечённого CD

Трек | Старт | Длительность | Начальный сектор | Конечный сектор
———————————————————————
1 | 0:00.00 | 5:31.01 | 0 | 24825
2 | 5:31.01 | 4:39.55 | 24826 | 45805
3 | 10:10.56 | 4:29.03 | 45806 | 65983
4 | 14:39.59 | 3:53.22 | 65984 | 83480
5 | 18:33.06 | 4:15.39 | 83481 | 102644
6 | 22:48.45 | 4:10.51 | 102645 | 121445
7 | 26:59.21 | 4:41.22 | 121446 | 142542
8 | 31:40.43 | 3:59.21 | 142543 | 160488
9 | 35:39.64 | 0:38.70 | 160489 | 163408
10 | 36:18.59 | 4:46.05 | 163409 | 184863
11 | 41:04.64 | 4:00.68 | 184864 | 202931
12 | 45:05.57 | 5:28.48 | 202932 | 227579

Характеристики диапазона извлечения и сообщения об ошибках

Выбранный диапазон

Имя файла E:\2019\HammerFall\2019 ‘Dominion’\Scans\HammerFall 2019 ‘Dominion’.wav

Пиковый уровень 100.0 %
Качество диапазона 99.9 %
CRC копии 9424EC4C
Копирование… OK

Ошибок не произошло

AccurateRip: сводка

Трек 1 точность не определена (достоверность 6) [CC33063D], AccurateRip вернул [26FEB71B]
Трек 2 точность не определена (достоверность 6) [5A2D9895], AccurateRip вернул [59022EC3]
Трек 3 точность не определена (достоверность 6) [C8CCA56D], AccurateRip вернул [40311D6D]
Трек 4 точность не определена (достоверность 6) [AAE4C027], AccurateRip вернул [3899EC5A]
Трек 5 точность не определена (достоверность 6) [E470C009], AccurateRip вернул [135D183E]
Трек 6 точность не определена (достоверность 6) [E2782739], AccurateRip вернул [FAF4C174]
Трек 7 точность не определена (достоверность 6) [0AD636F5], AccurateRip вернул [70A8ABA7]
Трек 8 точность не определена (достоверность 6) [17083FB2], AccurateRip вернул [4A2AB68A]
Трек 9 точность не определена (достоверность 6) [2C5A4425], AccurateRip вернул [70A7E20C]
Трек 10 точность не определена (достоверность 6) [01755CBC], AccurateRip вернул [9D9397D9]
Трек 11 точность не определена (достоверность 6) [17F23C52], AccurateRip вернул [2EAAEF99]
Трек 12 точность не определена (достоверность 6) [DB216408], AccurateRip вернул [67D26F3D]

Ни один трек не прошёл проверки на точность
В вашей базе может быть иной вариант штамповки диска

Конец отчёта

REM GENRE “Power Metal”
REM DATE 2019
REM DISCID 830BDA0C
REM COMMENT “ExactAudioCopy v0.99pb3”
PERFORMER “HammerFall”
TITLE “Dominion”
FILE “HammerFall 2019 ‘Dominion’.wav” WAVE
TRACK 01 AUDIO
TITLE “Never Forgive, Never Forget”
PERFORMER “HammerFall”
INDEX 01 00:00:00
TRACK 02 AUDIO
TITLE “Dominion”
PERFORMER “HammerFall”
INDEX 00 05:29:01
INDEX 01 05:31:01
TRACK 03 AUDIO
TITLE “Testify”
PERFORMER “HammerFall”
INDEX 00 10:08:56
INDEX 01 10:10:56
TRACK 04 AUDIO
TITLE “One Against The World”
PERFORMER “HammerFall”
INDEX 00 14:37:59
INDEX 01 14:39:59
TRACK 05 AUDIO
TITLE “(We Make) Sweden Rock”
PERFORMER “HammerFall”
INDEX 00 18:31:06
INDEX 01 18:33:06
TRACK 06 AUDIO
TITLE “Second To One”
PERFORMER “HammerFall”
INDEX 00 22:46:45
INDEX 01 22:48:45
TRACK 07 AUDIO
TITLE “Scars Of A Generation”
PERFORMER “HammerFall”
INDEX 00 26:57:63
INDEX 01 26:59:21
TRACK 08 AUDIO
TITLE “Dead By Dawn”
PERFORMER “HammerFall”
INDEX 00 31:38:43
INDEX 01 31:40:43
TRACK 09 AUDIO
TITLE “Battleworn”
PERFORMER “HammerFall”
INDEX 00 35:37:64
INDEX 01 35:39:64
TRACK 10 AUDIO
TITLE “Bloodline”
PERFORMER “HammerFall”
INDEX 01 36:18:59
TRACK 11 AUDIO
TITLE “Chain Of Command”
PERFORMER “HammerFall”
INDEX 00 41:02:64
INDEX 01 41:04:64
TRACK 12 AUDIO
TITLE “And Yet I Smile”
PERFORMER “HammerFall”
INDEX 00 45:04:42
INDEX 01 45:05:57


Leave a Reply

Your email address will not be published. Required fields are marked *

Enter the text from the image below
 

This site uses Akismet to reduce spam. Learn how your comment data is processed.