HammerFall – Dominion (Japanese Edition)




Artist: HammerFall
Year: 2019
Genre: Metal
Notes: Discogs
Add. Notes: Japanese Edition
Cover incl.: Yes
Encoder: WavPack
Bitrate: ~1000 kBit/s (44.1 kHz/16 Bit/s)
Log & Cue incl.: Yes
Size: 1295,8 MB
Password: “slam” (without ” “)


All Downloads/Hosters are compatible

Download 1
KatFile.com
Turbobit.net
Rapidgator.net
Download 2
KatFile.com
Turbobit.net
Rapidgator.net

Tracklist:

1 - Never Forgive, Never Forget - 5:31
2 - Dominion - 4:40
3 - Testify - 4:29
4 - One Against The World - 3:53
5 - (We Make) Sweden Rock - 4:16
6 - Second To One - 4:11
7 - Scars Of A Generation - 4:41
8 - Dead By Dawn - 3:59
9 - Battleworn - 0:39
10 - Bloodline - 4:46
11 - Chain Of Command - 4:01
12 - And Yet I Smile - 5:29
Japanese Bonus Track
13 - You Win Or You Die

EAC-Log, CUE-Sheed & NFO:

Click to open spoiler
Exact Audio Copy V1.3 from 2. September 2016

EAC extraction logfile from 18. October 2019, 12:31

HammerFall / Dominion

Used drive : HL-DT-STDVDRAM GH24NSD1 Adapter: 1 ID: 0

Read mode : Secure
Utilize accurate stream : Yes
Defeat audio cache : Yes
Make use of C2 pointers : No

Read offset correction : 6
Overread into Lead-In and Lead-Out : No
Fill up missing offset samples with silence : Yes
Delete leading and trailing silent blocks : No
Null samples used in CRC calculations : Yes
Used interface : Native Win32 interface for Win NT & 2000

Used output format : User Defined Encoder
Selected bitrate : 896 kBit/s
Quality : High
Add ID3 tag : No
Command line compressor : C:\Program Files (x86)\Exact Audio Copy\wavpack.exe
Additional command line options : -hm %source% %dest%

TOC of the extracted CD

Track | Start | Length | Start sector | End sector
———————————————————
1 | 0:00.00 | 5:33.01 | 0 | 24975
2 | 5:33.01 | 4:41.55 | 24976 | 46105
3 | 10:14.56 | 4:31.03 | 46106 | 66433
4 | 14:45.59 | 3:55.22 | 66434 | 84080
5 | 18:41.06 | 4:17.39 | 84081 | 103394
6 | 22:58.45 | 4:12.51 | 103395 | 122345
7 | 27:11.21 | 4:43.22 | 122346 | 143592
8 | 31:54.43 | 4:01.21 | 143593 | 161688
9 | 35:55.64 | 0:40.70 | 161689 | 164758
10 | 36:36.59 | 4:48.05 | 164759 | 186363
11 | 41:24.64 | 4:02.68 | 186364 | 204581
12 | 45:27.57 | 5:30.48 | 204582 | 229379
13 | 50:58.30 | 4:19.05 | 229380 | 248809

Range status and errors

Selected range

Filename E:\NetLab Club Releases\HammerFall – 2019 – Dominion (Japanese Edition)\HammerFall – Dominion.wav

Peak level 100.0 %
Extraction speed 1.3 X
Range quality 100.0 %
Test CRC FFCD4F25
Copy CRC FFCD4F25
Copy OK

No errors occurred

AccurateRip summary

Track 1 accurately ripped (confidence 1) [6554BD7A] (AR v2)
Track 2 accurately ripped (confidence 1) [1B1DB534] (AR v2)
Track 3 accurately ripped (confidence 1) [40311D6D] (AR v2)
Track 4 accurately ripped (confidence 1) [436CEA86] (AR v2)
Track 5 accurately ripped (confidence 1) [135D183E] (AR v2)
Track 6 accurately ripped (confidence 1) [FAF4C174] (AR v2)
Track 7 accurately ripped (confidence 1) [DCF017D7] (AR v2)
Track 8 accurately ripped (confidence 1) [4A2AB68A] (AR v2)
Track 9 accurately ripped (confidence 1) [1F5C7C2C] (AR v2)
Track 10 accurately ripped (confidence 1) [1C6A97FE] (AR v2)
Track 11 accurately ripped (confidence 1) [A16598E0] (AR v2)
Track 12 accurately ripped (confidence 1) [4708F657] (AR v2)
Track 13 accurately ripped (confidence 1) [974BEB5D] (AR v2)

All tracks accurately ripped

End of status report

—- CUETools DB Plugin V2.1.6

[CTDB TOCID: yAIt101RufattJDCVevQcQzxO3o-] found
Submit result: yAIt101RufattJDCVevQcQzxO3o- has been confirmed
Track | CTDB Status
1 | (9/9) Accurately ripped
2 | (9/9) Accurately ripped
3 | (9/9) Accurately ripped
4 | (9/9) Accurately ripped
5 | (9/9) Accurately ripped
6 | (9/9) Accurately ripped
7 | (9/9) Accurately ripped
8 | (9/9) Accurately ripped
9 | (9/9) Accurately ripped
10 | (9/9) Accurately ripped
11 | (9/9) Accurately ripped
12 | (9/9) Accurately ripped
13 | (9/9) Accurately ripped

==== Log checksum 23AAC3785E092B029703BF4D5BB557E144AFC1888913A5446BB28C194BE455E0 ====

REM GENRE “Power Metal”
REM DATE 2019-08-16
REM DISCID B60CF50D
REM COMMENT “ExactAudioCopy v1.3”
REM COMPOSER “”
PERFORMER “HammerFall”
TITLE “Dominion”
FILE “HammerFall – 2019 – Dominion.wv” WAVE
TRACK 01 AUDIO
TITLE “Never Forgive, Never Forget”
PERFORMER “HammerFall”
REM COMPOSER “”
INDEX 01 00:00:00
TRACK 02 AUDIO
TITLE “Dominion”
PERFORMER “HammerFall”
REM COMPOSER “”
INDEX 00 05:31:01
INDEX 01 05:33:01
TRACK 03 AUDIO
TITLE “Testify”
PERFORMER “HammerFall”
REM COMPOSER “”
INDEX 00 10:12:56
INDEX 01 10:14:56
TRACK 04 AUDIO
TITLE “One Against The World”
PERFORMER “HammerFall”
REM COMPOSER “”
INDEX 00 14:43:59
INDEX 01 14:45:59
TRACK 05 AUDIO
TITLE “(We Make) Sweden Rock”
PERFORMER “HammerFall”
REM COMPOSER “”
INDEX 00 18:39:06
INDEX 01 18:41:06
TRACK 06 AUDIO
TITLE “Second To One”
PERFORMER “HammerFall”
REM COMPOSER “”
INDEX 00 22:56:45
INDEX 01 22:58:45
TRACK 07 AUDIO
TITLE “Scars Of A Generation”
PERFORMER “HammerFall”
REM COMPOSER “”
INDEX 00 27:09:21
INDEX 01 27:11:21
TRACK 08 AUDIO
TITLE “Dead By Dawn”
PERFORMER “HammerFall”
REM COMPOSER “”
INDEX 00 31:52:43
INDEX 01 31:54:43
TRACK 09 AUDIO
TITLE “Battleworn”
PERFORMER “HammerFall”
REM COMPOSER “”
INDEX 00 35:53:64
INDEX 01 35:55:64
TRACK 10 AUDIO
TITLE “Bloodline”
PERFORMER “HammerFall”
REM COMPOSER “”
INDEX 00 36:34:59
INDEX 01 36:36:59
TRACK 11 AUDIO
TITLE “Chain Of Command”
PERFORMER “HammerFall”
REM COMPOSER “”
INDEX 00 41:22:64
INDEX 01 41:24:64
TRACK 12 AUDIO
TITLE “And Yet I Smile”
PERFORMER “HammerFall”
REM COMPOSER “”
INDEX 00 45:25:57
INDEX 01 45:27:57
TRACK 13 AUDIO
TITLE “You Win Or You Die (Japanese Bonus Track)”
PERFORMER “HammerFall”
REM COMPOSER “”
INDEX 00 50:56:30
INDEX 01 50:58:30


Leave a Reply

Your email address will not be published. Required fields are marked *

Enter the text from the image below
 

This site uses Akismet to reduce spam. Learn how your comment data is processed.