Hämatom – Wir Sind Gott (Tour Edition)




Artist: Hämatom
Year: 2016
Genre: Metal
Notes: Discogs
Add. Notes:
Cover incl.: Yes
Encoder: FLAC
Bitrate: ~1000 kBit/s (44.1 kHz/16 Bit/s)
Log & Cue incl.: Yes
Size: 590,38 MB
Password: “slam” (without ” “)


All Downloads/Hosters are compatible

Download 1
Turbobit.net
Rapidgator.net
KatFile.com
UploadRar.com
Download 2
Turbobit.net
Rapidgator.net
KatFile.com
UploadRar.com
Download 3
Turbobit.net
Rapidgator.net
KatFile.com
UploadRar.com

Tracklist:

01 - Wir Sind Gott - 4:54
02 - All U Need Is Love - 4:16
03 - Fick Das System - 3:40
04 - Made In Germany - 3:51
05 - Offline - 4:39
06 - Tanz Aus Der Reihe - 3:26
07 - I Have A Dream - 3:34
08 - Ikarus Erben - 3:44
09 - Zu Wahr Um Schön Zu Sein - 4:30
10 - Mach Kaputt - 3:23
11 - Hollywood Brennt - 4:27
12 - Halli Galli - 3:27
13 - Ist Das Kunst? - 3:47
14 - Feuerwasser - 3:53
15 - Sternenkind - 4:54
16 - Wenn Der Hammer Fällt - 3:09
17 - Wo Sind Die Helden - 3:51
18 - Mein Fleisch Und Blut - 3:51

EAC-Log, CUE-Sheed & NFO:

Click to open spoiler
Exact Audio Copy V1.1 from 23. June 2015

EAC extraction logfile from 6. November 2016, 14:15

Hamatom / Wir Sind Gott (Tour Edition)

Used drive : HP DVD Writer 1170d Adapter: 1 ID: 1

Read mode : Secure
Utilize accurate stream : Yes
Defeat audio cache : Yes
Make use of C2 pointers : No

Read offset correction : 6
Overread into Lead-In and Lead-Out : No
Fill up missing offset samples with silence : Yes
Delete leading and trailing silent blocks : No
Null samples used in CRC calculations : Yes
Used interface : Native Win32 interface for Win NT & 2000

Used output format : User Defined Encoder
Selected bitrate : 1024 kBit/s
Quality : Low
Add ID3 tag : No
Command line compressor : C:\Program Files (x86)\Exact Audio Copy\FLAC\FLAC.EXE
Additional command line options : -V -8 -T “Date=%year%” -T “Genre=%genre%” -T”COMMENT=Ripped by Ungern666″ -8 -V %source%

TOC of the extracted CD

Track | Start | Length | Start sector | End sector
———————————————————
1 | 0:00.00 | 4:53.48 | 0 | 22022
2 | 4:53.48 | 4:15.69 | 22023 | 41216
3 | 9:09.42 | 3:40.25 | 41217 | 57741
4 | 12:49.67 | 3:50.54 | 57742 | 75045
5 | 16:40.46 | 4:38.50 | 75046 | 95945
6 | 21:19.21 | 3:26.16 | 95946 | 111411
7 | 24:45.37 | 3:34.12 | 111412 | 127473
8 | 28:19.49 | 3:44.16 | 127474 | 144289
9 | 32:03.65 | 4:29.53 | 144290 | 164517
10 | 36:33.43 | 3:23.02 | 164518 | 179744
11 | 39:56.45 | 4:27.07 | 179745 | 199776
12 | 44:23.52 | 3:26.58 | 199777 | 215284
13 | 47:50.35 | 3:47.08 | 215285 | 232317
14 | 51:37.43 | 3:53.21 | 232318 | 249813
15 | 55:30.64 | 4:53.53 | 249814 | 271841
16 | 60:24.42 | 3:08.72 | 271842 | 286013
17 | 63:33.39 | 3:50.73 | 286014 | 303336
18 | 67:24.37 | 3:51.33 | 303337 | 320694

Range status and errors

Selected range

Filename C:\EAC\Ungern666\Hamatom – Wir Sind Gott (Tour Edition).wav

Peak level 97.0 %
Extraction speed 8.2 X
Range quality 100.0 %
Test CRC ADD96A1D
Copy CRC ADD96A1D
Copy OK

No errors occurred

AccurateRip summary

Track 1 not present in database
Track 2 not present in database
Track 3 not present in database
Track 4 not present in database
Track 5 not present in database
Track 6 not present in database
Track 7 not present in database
Track 8 not present in database
Track 9 not present in database
Track 10 not present in database
Track 11 not present in database
Track 12 not present in database
Track 13 not present in database
Track 14 not present in database
Track 15 not present in database
Track 16 not present in database
Track 17 not present in database
Track 18 not present in database

None of the tracks are present in the AccurateRip database

End of status report

—- CUETools DB Plugin V2.1.6

[CTDB TOCID: ZFwD25cq5qVX70E4MP6BYn_F298-] found
Submit result: ZFwD25cq5qVX70E4MP6BYn_F298- has been confirmed
Track | CTDB Status
1 | (8/8) Accurately ripped
2 | (8/8) Accurately ripped
3 | (8/8) Accurately ripped
4 | (8/8) Accurately ripped
5 | (8/8) Accurately ripped
6 | (8/8) Accurately ripped
7 | (8/8) Accurately ripped
8 | (8/8) Accurately ripped
9 | (8/8) Accurately ripped
10 | (8/8) Accurately ripped
11 | (8/8) Accurately ripped
12 | (8/8) Accurately ripped
13 | (8/8) Accurately ripped
14 | (8/8) Accurately ripped
15 | (8/8) Accurately ripped
16 | (8/8) Accurately ripped
17 | (8/8) Accurately ripped
18 | (8/8) Accurately ripped

==== Log checksum 18B3E421497145ADAFC05DE8FE613AD08A5BE1757AAE92AA5732583996350FC4 ====

REM DATE 2016
REM DISCID 0710B312
REM COMMENT “ExactAudioCopy v1.1”
PERFORMER “Hamatom”
TITLE “Wir Sind Gott (Tour Edition)”
FILE “Hamatom – Wir Sind Gott (Tour Edition).flac” WAVE
TRACK 01 AUDIO
TITLE “Wir Sind Gott”
PERFORMER “Hamatom”
INDEX 01 00:00:00
TRACK 02 AUDIO
TITLE “All U Need Is Love”
PERFORMER “Hamatom”
INDEX 01 04:53:48
TRACK 03 AUDIO
TITLE “Fick Das System”
PERFORMER “Hamatom”
INDEX 01 09:09:42
TRACK 04 AUDIO
TITLE “Made In Germany”
PERFORMER “Hamatom”
INDEX 01 12:49:67
TRACK 05 AUDIO
TITLE “Offline”
PERFORMER “Hamatom”
INDEX 01 16:40:46
TRACK 06 AUDIO
TITLE “Tanz Aus Der Reihe”
PERFORMER “Hamatom”
INDEX 01 21:19:21
TRACK 07 AUDIO
TITLE “I Have A Dream”
PERFORMER “Hamatom”
INDEX 01 24:45:37
TRACK 08 AUDIO
TITLE “Ikarus Erben”
PERFORMER “Hamatom”
INDEX 01 28:19:49
TRACK 09 AUDIO
TITLE “Zu Wahr Um Schon Zu Sein”
PERFORMER “Hamatom”
INDEX 01 32:03:65
TRACK 10 AUDIO
TITLE “Mach Kaputt”
PERFORMER “Hamatom”
INDEX 01 36:33:43
TRACK 11 AUDIO
TITLE “Hollywood Brennt”
PERFORMER “Hamatom”
INDEX 01 39:56:45
TRACK 12 AUDIO
TITLE “Halli Galli”
PERFORMER “Hamatom”
INDEX 01 44:23:52
TRACK 13 AUDIO
TITLE “Ist Das Kunst?”
PERFORMER “Hamatom”
INDEX 01 47:50:35
TRACK 14 AUDIO
TITLE “Feuerwasser”
PERFORMER “Hamatom”
INDEX 00 51:35:50
INDEX 01 51:37:43
TRACK 15 AUDIO
TITLE “Sternenkind”
PERFORMER “Hamatom”
INDEX 00 55:27:65
INDEX 01 55:30:64
TRACK 16 AUDIO
TITLE “Wenn Der Hammer Fallt (feat. MC Basstard)”
PERFORMER “Hamatom”
INDEX 01 60:24:42
TRACK 17 AUDIO
TITLE “Wo Sind Die Helden?”
PERFORMER “Hamatom”
INDEX 00 63:32:20
INDEX 01 63:33:39
TRACK 18 AUDIO
TITLE “Mein Fleisch Und Blut”
PERFORMER “Hamatom”
INDEX 00 67:20:28
INDEX 01 67:24:37


Leave a Reply

Your email address will not be published. Required fields are marked *

Enter the text from the image below
 

This site uses Akismet to reduce spam. Learn how your comment data is processed.