Hämatom – Wir Sind Gott (Limited Edition)




Artist: Hämatom
Year: 2016
Genre: Metal
Notes: Discogs
Add. Notes: Limited Edition
Cover incl.: Yes
Encoder: FLAC
Bitrate: ~1000 kBit/s (44.1 kHz/16 Bit/s)
Log & Cue incl.: Yes
Size: 595,09 MB
Password: “slam” (without ” “)


All Downloads/Hosters are compatible

Download 1
Turbobit.net
Rapidgator.net
KatFile.com
UploadRar.com
Download 2
Turbobit.net
Rapidgator.net
KatFile.com
UploadRar.com
Download 3
Turbobit.net
Rapidgator.net
KatFile.com
UploadRar.com

Tracklist:

1-01 - Wir Sind Gott - 4:54
1-02 - All U Need Is Love - 4:16
1-03 - Fick Das System - 3:40
1-04 - Made In Germany - 3:51
1-05 - Offline - 4:39
1-06 - Tanz Aus Der Reihe - 3:26
1-07 - I Have A Dream - 3:34
1-08 - Ikarus Erben - 3:44
1-09 - Zu Wahr Um Schön Zu Sein - 4:30
1-10 - Mach Kaputt - 3:23
1-11 - Hollywood Brennt - 4:27
1-12 - Halli Galli - 3:27
1-13 - Ist Das Kunst? - 3:47
2-01 - Höllenritt - 3:44
2-02 - XXL - 3:56
2-03 - Big Brother - 3:38
2-04 - Zu Wahr Um Schön Zu Sein (Instrumental) - 4:32

EAC-Log, CUE-Sheed & NFO:

Click to open spoiler
Exact Audio Copy V1.1 from 23. June 2015

EAC extraction logfile from 9. November 2016, 16:38

Hamatom / Wir Sind Gott

Used drive : HP DVD Writer 1170d Adapter: 1 ID: 1

Read mode : Secure
Utilize accurate stream : Yes
Defeat audio cache : Yes
Make use of C2 pointers : No

Read offset correction : 6
Overread into Lead-In and Lead-Out : No
Fill up missing offset samples with silence : Yes
Delete leading and trailing silent blocks : No
Null samples used in CRC calculations : Yes
Used interface : Native Win32 interface for Win NT & 2000

Used output format : User Defined Encoder
Selected bitrate : 1024 kBit/s
Quality : Low
Add ID3 tag : No
Command line compressor : C:\Program Files (x86)\Exact Audio Copy\FLAC\FLAC.EXE
Additional command line options : -V -8 -T “Date=%year%” -T “Genre=%genre%” -T”COMMENT=Ripped by Ungern666″ -8 -V %source%

TOC of the extracted CD

Track | Start | Length | Start sector | End sector
———————————————————
1 | 0:00.00 | 4:54.00 | 0 | 22049
2 | 4:54.00 | 4:16.03 | 22050 | 41252
3 | 9:10.03 | 3:40.17 | 41253 | 57769
4 | 12:50.20 | 3:50.47 | 57770 | 75066
5 | 16:40.67 | 4:38.67 | 75067 | 95983
6 | 21:19.59 | 3:26.01 | 95984 | 111434
7 | 24:45.60 | 3:34.00 | 111435 | 127484
8 | 28:19.60 | 3:44.35 | 127485 | 144319
9 | 32:04.20 | 4:29.42 | 144320 | 164536
10 | 36:33.62 | 3:23.07 | 164537 | 179768
11 | 39:56.69 | 4:27.10 | 179769 | 199803
12 | 44:24.04 | 3:26.55 | 199804 | 215308
13 | 47:50.59 | 3:46.66 | 215309 | 232324

Range status and errors

Selected range

Filename C:\EAC\Ungern666\Hamatom – Wir Sind Gott.wav

Peak level 99.1 %
Extraction speed 5.6 X
Range quality 100.0 %
Test CRC E17722AF
Copy CRC E17722AF
Copy OK

No errors occurred

AccurateRip summary

Track 1 accurately ripped (confidence 6) [EF09CF21] (AR v2)
Track 2 accurately ripped (confidence 6) [149D90D0] (AR v2)
Track 3 accurately ripped (confidence 6) [0EDADA00] (AR v2)
Track 4 accurately ripped (confidence 6) [6A13566D] (AR v2)
Track 5 accurately ripped (confidence 6) [65836159] (AR v2)
Track 6 accurately ripped (confidence 6) [0B29B358] (AR v2)
Track 7 accurately ripped (confidence 6) [E0E7BFA2] (AR v2)
Track 8 accurately ripped (confidence 6) [673E4736] (AR v2)
Track 9 accurately ripped (confidence 6) [6FB09E6A] (AR v2)
Track 10 accurately ripped (confidence 6) [5FC25167] (AR v2)
Track 11 accurately ripped (confidence 6) [CB9391FB] (AR v2)
Track 12 accurately ripped (confidence 6) [6D705903] (AR v2)
Track 13 accurately ripped (confidence 6) [2F6937C9] (AR v2)

All tracks accurately ripped

End of status report

—- CUETools DB Plugin V2.1.6

[CTDB TOCID: d8lHRpLY2DAQj6txLdiRdiE9yMI-] found
Submit result: d8lHRpLY2DAQj6txLdiRdiE9yMI- has been confirmed
Track | CTDB Status
1 | (36/36) Accurately ripped
2 | (36/36) Accurately ripped
3 | (36/36) Accurately ripped
4 | (36/36) Accurately ripped
5 | (36/36) Accurately ripped
6 | (36/36) Accurately ripped
7 | (36/36) Accurately ripped
8 | (36/36) Accurately ripped
9 | (36/36) Accurately ripped
10 | (36/36) Accurately ripped
11 | (36/36) Accurately ripped
12 | (36/36) Accurately ripped
13 | (36/36) Accurately ripped

==== Log checksum 82FE7516F20F054637551DCF470CDD37BFC3D7EA8EC0E4AD993B8C7ACA3F170C ====

REM DATE 2016
REM DISCID BB0C190D
REM COMMENT “ExactAudioCopy v1.1”
PERFORMER “Hamatom”
TITLE “Wir Sind Gott”
FILE “Hamatom – Wir Sind Gott.flac” WAVE
TRACK 01 AUDIO
TITLE “Wir Sind Gott”
PERFORMER “Hamatom”
FLAGS DCP
INDEX 01 00:00:00
TRACK 02 AUDIO
TITLE “All U Need Is Love”
PERFORMER “Hamatom”
FLAGS DCP
INDEX 01 04:54:00
TRACK 03 AUDIO
TITLE “Fick Das System”
PERFORMER “Hamatom”
FLAGS DCP
INDEX 01 09:10:03
TRACK 04 AUDIO
TITLE “Made In Germany”
PERFORMER “Hamatom”
FLAGS DCP
INDEX 01 12:50:20
TRACK 05 AUDIO
TITLE “Offline”
PERFORMER “Hamatom”
FLAGS DCP
INDEX 01 16:40:67
TRACK 06 AUDIO
TITLE “Tanz Aus Der Reihe”
PERFORMER “Hamatom”
FLAGS DCP
INDEX 01 21:19:59
TRACK 07 AUDIO
TITLE “I Have A Dream”
PERFORMER “Hamatom”
FLAGS DCP
INDEX 01 24:45:60
TRACK 08 AUDIO
TITLE “Ikarus Erben”
PERFORMER “Hamatom”
FLAGS DCP
INDEX 01 28:19:60
TRACK 09 AUDIO
TITLE “Zu Wahr Um Schon Zu Sein”
PERFORMER “Hamatom”
FLAGS DCP
INDEX 01 32:04:20
TRACK 10 AUDIO
TITLE “Mach Kaputt”
PERFORMER “Hamatom”
FLAGS DCP
INDEX 01 36:33:62
TRACK 11 AUDIO
TITLE “Hollywood Brennt”
PERFORMER “Hamatom”
FLAGS DCP
INDEX 01 39:56:69
TRACK 12 AUDIO
TITLE “Halli Galli”
PERFORMER “Hamatom”
FLAGS DCP
INDEX 01 44:24:04
TRACK 13 AUDIO
TITLE “Ist Das Kunst?”
PERFORMER “Hamatom”
FLAGS DCP
INDEX 01 47:50:59


Leave a Reply

Your email address will not be published. Required fields are marked *

This site uses Akismet to reduce spam. Learn how your comment data is processed.